2 сезон

iTunes

MVO

1

2 сезон

iTunes

iTunes

1 сезон

RePack

30

Ultimate

ВАЖНО

ИГРА 18+

pack

RePack

MK11
pack

Легкие деньги

RePack

jed

RePack

fifa19

RePack

RDR2

RePack

NEED FOR SPEED™ PAYBACK

4 сезон

9 сезон

Бесстыжие 9 сезон

Все сериалы

все сериалы на PB.wtf

RePack

FAR CRY 5

Anonymous, доброй ночи, мы не успеваем собрать деньги на оплату серверов за декабрь и январь, помогите нам пожалуйста в это трудное время. В качестве благодарности мы отключим Вам всю рекламу на сайте (укажите свой ник в строку Ваше имя)!

×
  
Magnet ссылка

Создавая Изумрудный город / Oz Reimagined: The Making of Emerald City (Крис Петерсен) [2017 г., Документальный, HDTVRip (AVC), Профессиональный (многоголосый)] от R.G.Resident piratbit.org

Скачать  

20-02-2017 11:42 Создавая Изумрудный город Скачать торрент  

Создавая Изумрудный город / Oz Reimagined: The Making of Emerald City
Год выпуска: 2017
Страна: США, NBC Universal Television
Жанр: Документальный
Продолжительность: 00:42:34
Перевод: Профессиональный (многоголосый)

Режиссер: Крис Петерсен

В ролях: Герран Хауэлл, Адриа Архона, Винсент Д`Онофрио, Оливер Джексон-Коэн, Изабель Лукас, Стефани Мартини, Ана Улару, Рокси Штернберг, Ребека Ри, Оулавюр Дарри Оулафссон

Описание: Заглянем за кулисы Изумрудного города и подсмотреть в производстве, от Испании до Венгрии. Присоединяйтесь к нам на этот всеобъемлющий взгляд на создание этой грандиозной серии с актерами и съемочной группой. Обнаружить эффекты, используемые для создания Оз, детали костюма, а также интервью с актерами, режиссером и съемочной группой.

Качество: HDTVRip (AVC)
Формат: MKV
Видео кодек: H.264
Аудио кодек: AC3
Видео: x264, ~ 1614 Кбит/с, 1024x576, 25.000 fps
Аудио#1: AC3, 2 ch, 192 Кбит/с, 48.0 KHz
Релиз от: ruslanishe
General
Sozdavaya.Izumrudnii.gorod.x264.2017.HDTVRip.R.G.Resident.mkv
Format : Matroska
Format version : Version 2
File size : 550 MiB
Duration : 42mn 34s
Overall bit rate : 1 808 Kbps
Movie name : Rip By ruslanishe для R.G.Resident
Encoded date : UTC 2017-02-20 11:27:41
Writing application : mkvmerge v7.6.0 ('Garden of Dreams') 32bit built on Feb 11 2015 00:18:47
Writing library : libebml v1.3.1 + libmatroska v1.4.2

Video
ID : 1
Format : AVC
Format/Info : Advanced Video Codec
Format profile : High@L4.1
Format settings, CABAC : Yes
Format settings, ReFrames : 12 frames
Codec ID : V_MPEG4/ISO/AVC
Duration : 42mn 34s
Bit rate : 1 614 Kbps
Width : 1 024 pixels
Height : 576 pixels
Display aspect ratio : 16:9
Frame rate mode : Constant
Frame rate : 25.000 fps
Color space : YUV
Chroma subsampling : 4:2:0
Bit depth : 8 bits
Scan type : Progressive
Bits/(Pixel*Frame) : 0.109
Stream size : 481 MiB (87%)
Writing library : x264 core 146 r2538 121396c
Encoding settings : cabac=1 / ref=12 / deblock=1:-2:-1 / analyse=0x3:0x113 / me=umh / subme=10 / psy=1 / psy_rd=0.00:0.15 / mixed_ref=1 / me_range=32 / chroma_me=1 / trellis=2 / 8x8dct=1 / cqm=0 / deadzone=21,11 / fast_pskip=0 / chroma_qp_offset=-3 / threads=6 / lookahead_threads=1 / sliced_threads=0 / nr=0 / decimate=0 / interlaced=0 / bluray_compat=0 / constrained_intra=0 / bframes=12 / b_pyramid=2 / b_adapt=2 / b_bias=0 / direct=1 / weightb=1 / open_gop=0 / weightp=2 / keyint=250 / keyint_min=25 / scenecut=40 / intra_refresh=0 / rc_lookahead=40 / rc=2pass / mbtree=1 / bitrate=1614 / ratetol=1.0 / qcomp=0.70 / qpmin=0 / qpmax=69 / qpstep=4 / cplxblur=20.0 / qblur=0.5 / vbv_maxrate=50000 / vbv_bufsize=65500 / nal_hrd=none / filler=0 / ip_ratio=1.40 / aq=1:1.00
Language : Russian
Default : Yes
Forced : Yes

Audio
ID : 2
Format : AC-3
Format/Info : Audio Coding 3
Mode extension : CM (complete main)
Format settings, Endianness : Big
Codec ID : A_AC3
Duration : 42mn 34s
Bit rate mode : Constant
Bit rate : 192 Kbps
Channel(s) : 2 channels
Channel positions : Front: L R
Sampling rate : 48.0 KHz
Bit depth : 16 bits
Compression mode : Lossy
Stream size : 58.5 MiB (11%)
Language : Russian
Default : Yes
Forced : Yes
piratbit.org



Скачать
Чтобы иметь возможность скачивать с Торрент Трекера, нужно Зарегистрироваться

Как скачивать  ·  Рейтинг и ограничения

28-11-2019 20:33  

Отключить всю рекламу на сайте

    Дорогой пользователь! Огромная просьба, поблагодарите релизера, оцените раздачу и оставьте свои комментарий, если Вы скачали Создавая Изумрудный город через торрент бесплатно! Внесите свою лепту в развитие PiratBit!
    Комментировать посты могут только пользователи прошедшие не сложную регистрацию
    Показать сообщения:    

    Создавая Изумрудный город через торрент
    Скачать бесплатно Создавая Изумрудный город
    Создавая Изумрудный город скачать торрент
    Создавая Изумрудный город смотреть онлайн
    Cкачать фильм Создавая Изумрудный город бесплатно
    Создавая Изумрудный город скачать торрент в хорошем качестве
    Создавая Изумрудный город смотреть онлайн бесплатно в хорошем качестве


    Вы не можете начинать темы
    Вы не можете отвечать на сообщения
    Вы не можете редактировать свои сообщения
    Вы не можете удалять свои сообщения
    Вы не можете голосовать в опросах
    Вы не можете прикреплять файлы к сообщениям
    Вы не можете скачивать файлы