1 сезон

3 сезон

iTunes

1

iTunes

DUB Netflix

iTunes

13

1 сезон

RePack

30

Deluxe

pack

Легкие деньги

ВАЖНО

ИГРА 18+

pack

RePack

MK11

RePack

jed

RePack

fifa19

RePack

RDR2

RePack

NEED FOR SPEED™ PAYBACK

4 сезон

9 сезон

Бесстыжие 9 сезон

Все сериалы

все сериалы на PB.wtf

RePack

FAR CRY 5

Anonymous, добрый день, мы не успеваем до 1 числа собрать деньги на оплату серверов, помогите нам пожалуйста в это трудное время. В качестве благодарности мы отключим Вам всю рекламу на сайте (укажите свой ник в строку Ваше имя)!

×
  
Magnet ссылка

Союзники / Allied (Роберт Земекис) [2016, боевик, триллер, драма, мелодрама, военный, BDRip-AVC] DUB [iTunes] piratbit.org

Союзники через торрент piratbit.org

Размер: 1.4 GB | Добавлен: 4 года 3 мес. назад | Торрент скачан:358 раз
Скачать  

21-02-2017 08:44 Союзники Скачать торрент  

Союзники / Allied
Год выпуска: 2016
Страна: США, Великобритания
Жанр: боевик, триллер, драма, мелодрама, военный
Продолжительность: 02:04:35
Перевод: Дубляж - [iTunes]
Субтитры: Русские (форсированные)

Режиссер: Роберт Земекис

rating

В ролях:

Брэд Питт, Марион Котийяр, Лиззи Каплан, Аугуст Диль, Шарлотта Хоуп, Рэффи Кэссиди, Мэттью Гуд, Дэниэл Беттс, Саймон МакБерни, Джаред Харрис

Описание:

1942 год. Во время опасной миссии в Северной Африке разведчик Макс встречает участницу сопротивления Марианну. Их чувствам суждено подвергнуться тысяче испытаний, главным из которых станет испытание правдой...

Качество: BDRip-AVC
Формат: MKV
Видео кодек: H.264
Аудио кодек: AC3

Видео: 1032x430 (2.40:1), 23.976 fps, AVC MPEG-4 (H.264), High@L4.1 ~1194 kbps, 0.112 bit/pixel
Аудио#1: 48 kHz, AC3 Dolby Digital, 6 ch, ~384 kbps
Format : Matroska
Format version : Version 4 / Version 2
File size : 1.40 GiB
Duration : 2h 4 min
Overall bit rate : 1 610 kb/s
Movie name : Союзники / Allied (2016) :: AFM ::
Encoded date : UTC 2017-02-21 02:45:37
Writing application : mkvmerge v8.3.0 ('Over the Horizon') 32bit
Writing library : libebml v1.3.1 + libmatroska v1.4.2

Video
ID : 1
Format : AVC
Format/Info : Advanced Video Codec
Format profile : High@L4.1
Format settings, CABAC : Yes
Format settings, ReFrames : 11 frames
Codec ID : V_MPEG4/ISO/AVC
Duration : 2h 4 min
Bit rate : 1 194 kb/s
Width : 1 032 pixels
Height : 430 pixels
Display aspect ratio : 2.40:1
Frame rate mode : Constant
Frame rate : 23.976 (24000/1001) FPS
Color space : YUV
Chroma subsampling : 4:2:0
Bit depth : 8 bits
Scan type : Progressive
Bits/(Pixel*Frame) : 0.112
Stream size : 1.04 GiB (74%)
Title : BDRip by AFM
Writing library : x264 core 148 r2762+56 6284cf3 t_mod_Custom [8-bit@all X86_64]
Encoding settings : cabac=1 / ref=11 / deblock=1:-2:-2 / analyse=0x3:0x113 / me=umh / subme=10 / psy=1 / fade_compensate=0.00 / psy_rd=1.00:0.00 / mixed_ref=1 / me_range=32 / chroma_me=1 / trellis=2 / 8x8dct=1 / cqm=0 / deadzone=21,11 / fast_pskip=0 / chroma_qp_offset=-2 / threads=6 / lookahead_threads=1 / sliced_threads=0 / nr=0 / decimate=1 / interlaced=0 / bluray_compat=0 / constrained_intra=0 / fgo=0 / bframes=14 / b_pyramid=2 / b_adapt=2 / b_bias=0 / direct=1 / weightb=1 / open_gop=0 / weightp=2 / keyint=240 / keyint_min=23 / scenecut=40 / intra_refresh=0 / rc_lookahead=60 / rc=crf / mbtree=0 / crf=18.0000 / qcomp=0.65 / qpmin=0:0:0 / qpmax=69:69:69 / qpstep=4 / vbv_maxrate=50000 / vbv_bufsize=62500 / crf_max=0.0 / nal_hrd=none / filler=0 / ip_ratio=1.30 / pb_ratio=1.25 / aq=3:0.90 / aq-sensitivity=10.00 / aq-factor=1.00:1.00:1.00 / aq2=0 / aq3=0 / zones=167700,179228,q=30
Language : English
Default : Yes
Forced : No

Audio
ID : 2
Format : AC-3
Format/Info : Audio Coding 3
Mode extension : CM (complete main)
Format settings, Endianness : Big
Codec ID : A_AC3
Duration : 2h 4 min
Bit rate mode : Constant
Bit rate : 384 kb/s
Channel(s) : 6 channels
Channel positions : Front: L C R, Side: L R, LFE
Sampling rate : 48.0 kHz
Frame rate : 31.250 FPS (1536 spf)
Compression mode : Lossy
Stream size : 342 MiB (24%)
Title : Dub, AC3 5.1 ~384 kbps
Language : Russian
Default : Yes
Forced : No

Text
ID : 3
Format : UTF-8
Codec ID : S_TEXT/UTF8
Codec ID/Info : UTF-8 Plain Text
Title : forced
Language : Russian
Default : Yes
Forced : No

Menu
00:00:00.000 : en:Chapter 01
00:05:38.088 : en:Chapter 02
00:16:39.749 : en:Chapter 03
00:24:31.428 : en:Chapter 04
00:33:52.280 : en:Chapter 05
00:43:07.543 : en:Chapter 06
00:49:14.118 : en:Chapter 07
01:01:39.321 : en:Chapter 08
01:09:36.339 : en:Chapter 09
01:16:44.016 : en:Chapter 10
01:26:14.961 : en:Chapter 11
01:31:53.466 : en:Chapter 12
01:40:12.173 : en:Chapter 13
01:47:25.105 : en:Chapter 14
01:56:35.614 : en:Chapter 15
скриншот   скриншот   скриншот   скриншот  
piratbit.org



Скачать Союзники через торрент https://pic1.kartinco.top/images/11/wr6q4.jpg Скачать фильм Союзники через торрент бесплантно в хорошем качестве Описание: 1942 год. Во время опасной миссии в Северной Африке разведчик Макс встречает участницу сопротивления Марианну. Их чувствам ... 10 10 6
Info! Золотая раздача, скачанное не засчитывается.
Торрент: Зарегистрирован [2017-02-21 08:44] · скачан: 358 раз
Статус: √ проверено
Размер: 1.4 GB
Как cкачать? Как скачать Союзники через торрент | UTorrent

% Раздел Тема Автор DL S | L
Ultra HD (UHD: 2K, 4K, 8K) — видео сверхвысокой чёткости [ 21.22 GB ] Союзники / Allied [2016 UHD BDRip 2160p SDR] DUB + 2xAVO sheker187 Скачать
1 | 0
Ultra HD (UHD: 2K, 4K, 8K) — видео сверхвысокой чёткости [ 61.26 GB ] Союзники / Allied [2016 военный UHD BDRemux 2160p] DUB [] bober100 Скачать
1 | 0
Фильмы (Blu-ray, BD-Remux, HDDVD) [ 34.92 GB ] Союзники / Allied [2016 военный BD Remux 1080p] [] 2xDUB+2xAVO bober100 Скачать
1 | 0
Фильмы 2016 [DVDrip, WEB-DLRip, HDrip] (DUB, MVO) [ 2.2 GB ] Союзники / Allied [2016 военный BDRip-AVC] DUB [] от ExKinoRay Enigma2010 Скачать
1 | 0
Ultra HD (UHD: 2K, 4K, 8K) — видео сверхвысокой чёткости [ 23.57 GB ] Союзники / Allied [2016 военный UHD WEBRip 2160p] [USA Transfer] 2xDUB [] bober100 Скачать
1 | 0
Фильмы [HD 720p, 1080p] (Хороший звук DUB, MVO) [ 7.74 GB ] Союзники / Allied [2016 BDRip 1080p] - [] -Lexx- Скачать
1 | 0
Фильмы 2016 [DVDrip, WEB-DLRip, HDrip] (DUB, MVO) [ 2.18 GB ] Союзники / Allied [2016 военный BDRip] - [] Twi7ter Скачать
2 | 0

28-11-2019 20:33  

Отключить всю рекламу на сайте

    Дорогой пользователь! Огромная просьба, поблагодарите релизера, оцените раздачу и оставьте свои комментарий, если Вы скачали Союзники через торрент бесплатно! Внесите свою лепту в развитие PiratBit!
    Комментировать посты могут только пользователи прошедшие не сложную регистрацию
    Показать сообщения:    

    Союзники через торрент
    Скачать бесплатно Союзники
    Союзники скачать торрент
    Союзники смотреть онлайн
    Cкачать фильм Союзники бесплатно
    Союзники скачать торрент в хорошем качестве
    Союзники смотреть онлайн бесплатно в хорошем качестве


    Вы не можете начинать темы
    Вы не можете отвечать на сообщения
    Вы не можете редактировать свои сообщения
    Вы не можете удалять свои сообщения
    Вы не можете голосовать в опросах
    Вы не можете прикреплять файлы к сообщениям
    Вы можете скачивать файлы