1 сезон

3 сезон

iTunes

1

iTunes

DUB Netflix

iTunes

13

1 сезон

RePack

30

Deluxe

pack

Легкие деньги

ВАЖНО

ИГРА 18+

pack

RePack

MK11

RePack

jed

RePack

fifa19

RePack

RDR2

RePack

NEED FOR SPEED™ PAYBACK

4 сезон

9 сезон

Бесстыжие 9 сезон

Все сериалы

все сериалы на PB.wtf

RePack

FAR CRY 5

Anonymous, доброй ночи, мы не успеваем до 1 числа собрать деньги на оплату серверов, помогите нам пожалуйста в это трудное время. В качестве благодарности мы отключим Вам всю рекламу на сайте (укажите свой ник в строку Ваше имя)!

×
  
Magnet ссылка

Фантастические твари и где они обитают / Fantastic Beasts and Where to Find Them (Дэвид Йейтс) [2016г., фэнтези, приключения, семейный, BDRip] Лицензия piratbit.org

Фантастические твари и где они обитают через торрент piratbit.org

Раздают: 1 [ 0 KB/s ]
Размер: 1.37 GB | Добавлен: 4 года 3 мес. назад | Торрент скачан:1222 раза
Скачать  

25-02-2017 04:58 Фантастические твари и где они обитают Скачать торрент  

Фантастические твари и где они обитают / Fantastic Beasts and Where to Find Them
Год выпуска: 2016
Страна: Великобритания, США, Cinesite, Double Negative, Framestore
Жанр: фэнтези, приключения, семейный
Продолжительность: 02:13:18

  • Перевод: Дубляж (Лицензия)
  • Оригинальная аудиодорожка: Нет

Режиссер: Дэвид Йейтс
В ролях: Эдди Редмэйн, Кэтрин Уотерстон, Дэн Фоглер, Элисон Судол, Колин Фаррелл, Кармен Эджого, Эзра Миллер, Саманта Мортон, Рон Перлман, Джон Войт
Описание: Поиск и изучение необычайных волшебных существ приводят магозоолога Ньюта Саламандера в Нью-Йорк. Скорее всего, он отбыл бы на поезде дальше, если бы не не маг (так в Америке называют магглов) по имени Якоб, оставленный в неположенном месте магический чемодан и побег из него фантастических животных Ньюта.



rating
  • Тип релиза: BDRip
  • Формат: AVI
  • Видео кодек: XviD | Аудио кодек: AC3
  • Видео: 720x304 (2.35:1), 1015 Kbps, 23,976 fps, 0,194 bpp
  • Аудио: AC3 / 5.1 / 48 kHz / 448 kbps /

[/url]
General
Complete name : C:\торрент\тор\FanTastICHEskie.Zveri.2O16.D.BDRip.14OOMB.avi
Format : AVI
Format/Info : Audio Video Interleave
File size : 1.37 GiB
Duration : 2h 12mn
Overall bit rate : 1 473 Kbps
Writing application : VirtualDubMod 1.5.10.2 (build 2540/release)
Writing library : VirtualDubMod build 2540/release

Video
ID : 0
Format : MPEG-4 Visual
Format profile : Advanced Simple@L5
Format settings, BVOP : 2
Format settings, QPel : No
Format settings, GMC : No warppoints
Format settings, Matrix : Default (MPEG)
Codec ID : XVID
Codec ID/Hint : XviD
Duration : 2h 12mn
Bit rate : 1 015 Kbps
Width : 720 pixels
Height : 304 pixels
Display aspect ratio : 2.35:1
Frame rate : 23.976 (24000/1001) fps
Color space : YUV
Chroma subsampling : 4:2:0
Bit depth : 8 bits
Scan type : Progressive
Compression mode : Lossy
Bits/(Pixel*Frame) : 0.194
Stream size : 965 MiB (69%)
Writing library : XviD 1.2.1 (UTC 2008-12-04)

Audio
ID : 1
Format : AC-3
Format/Info : Audio Coding 3
Mode extension : CM (complete main)
Format settings, Endianness : Big
Codec ID : 2000
Duration : 2h 12mn
Bit rate mode : Constant
Bit rate : 448 Kbps
Channel(s) : 6 channels
Channel positions : Front: L C R, Side: L R, LFE
Sampling rate : 48.0 KHz
Frame rate : 31.250 fps (1536 spf)
Compression mode : Lossy
Stream size : 426 MiB (30%)
Alignment : Split accross interleaves
Interleave, duration : 42 ms (1.00 video frame)
Interleave, preload duratio : 500 ms
piratbit.org



Скачать Фантастические твари и где они обитают через торрент https://pic1.kartinco.top/images/11/fqnae.jpg Скачать фильм Фантастические твари и где они обитают через торрент бесплантно в хорошем качестве Описание: Поиск и изучение необычайных волшебных существ приводят магозоолога Ньюта Саламандера в Нью-Йорк. Скорее всего, он отбыл бы на ... 9.8 10 48
Info! Золотая раздача, скачанное не засчитывается.
Торрент: Зарегистрирован [2017-02-25 04:58] · скачан: 1 222 раз
Статус: √ проверено
Размер: 1.37 GB
Как cкачать? Как скачать Фантастические твари и где они обитают через торрент | UTorrent

% Раздел Тема Автор DL S | L
Ultra HD (UHD: 2K, 4K, 8K) — видео сверхвысокой чёткости [ 57.5 GB ] Фантастические твари и где они обитают / Fantastic Beasts and Where to Find Them [2016 UHD BDRemux 2160p] DUB [] + 2xAVO sheker187 Скачать
2 | 0
Фильмы (HD 720p, 1080p) (48-60 fps) [ 4.31 GB ] Фантастические твари и где они обитают / Fantastic Beasts and Where to Find Them [2016 BDRip 720p 60 fps от еnvy / NNNB] DUB / еnvy Скачать
16 | 0
Фильмы [HD 720p, 1080p] (Хороший звук DUB, MVO) [ 7.72 GB ] Фантастические твари и где они обитают / Fantastic Beasts and Where to Find Them [2016 BDRip 1080p от еnvy / NNNB] DUB / еnvy Скачать
43 | 1
Ultra HD (UHD: 2K, 4K, 8K) — видео сверхвысокой чёткости [ 59.31 GB ] Фантастические твари и где они обитают / Fantastic Beasts and Where to Find Them [2016 UHD Blu-ray 2160p] - [] sheker187 Скачать
1 | 0
Ultra HD (UHD: 2K, 4K, 8K) — видео сверхвысокой чёткости [ 50.86 GB ] Фантастические твари и где они обитают / Fantastic Beasts and Where to Find Them [2016 экранизация UHD BDRemux 2160p] DUB [] bober100 Скачать
2 | 0
Фильмы (Blu-ray, BD-Remux, HDDVD) [ 35.68 GB ] Фантастические твари и где они обитают / Fantastic Beasts and Where to Find Them [2016 экранизация BD Remux 1080p] [] 2xDUB+2xAVO bober100 Скачать
1 | 0
3D Фильмы [ 8.3 GB ] Фантастические твари и где они обитают в 3D / Fantastic Beasts and Where to Find Them in 3D [2016 BDRip 1080p ]Анаглиф slaventi-69 Скачать
1 | 0

28-11-2019 20:33  

Отключить всю рекламу на сайте

25-02-2017 05:15 Фантастические твари и где они обитают Скачать торрент  

Неожиданно) piratbit.org



25-02-2017 06:18 Фантастические твари и где они обитают Скачать торрент  

bober100 писал(а):

Неожиданно)

что именно?piratbit.org



25-02-2017 06:24 Фантастические твари и где они обитают Скачать торрент  

ramilka-master, Лицензия)piratbit.org



25-02-2017 09:18 Фантастические твари и где они обитают Скачать торрент  

Подскажите, будет 3D?piratbit.org



25-02-2017 15:08 Фантастические твари и где они обитают Скачать торрент  

ramilka-master писал(а):

bober100 писал(а):

Неожиданно)

что именно?

согласен я думал 10 марта будет а тут у же сделали спасибоpiratbit.org



    Дорогой пользователь! Огромная просьба, поблагодарите релизера, оцените раздачу и оставьте свои комментарий, если Вы скачали Фантастические твари и где они обитают через торрент бесплатно! Внесите свою лепту в развитие PiratBit!
    Комментировать посты могут только пользователи прошедшие не сложную регистрацию
    Показать сообщения:    

    Фантастические твари и где они обитают через торрент
    Скачать бесплатно Фантастические твари и где они обитают
    Фантастические твари и где они обитают скачать торрент
    Фантастические твари и где они обитают смотреть онлайн
    Cкачать фильм Фантастические твари и где они обитают бесплатно
    Фантастические твари и где они обитают скачать торрент в хорошем качестве
    Фантастические твари и где они обитают смотреть онлайн бесплатно в хорошем качестве


    Вы не можете начинать темы
    Вы не можете отвечать на сообщения
    Вы не можете редактировать свои сообщения
    Вы не можете удалять свои сообщения
    Вы не можете голосовать в опросах
    Вы не можете прикреплять файлы к сообщениям
    Вы можете скачивать файлы