1 сезон

3 сезон

iTunes

1

iTunes

DUB Netflix

iTunes

13

1 сезон

RePack

30

Deluxe

pack

Легкие деньги

ВАЖНО

ИГРА 18+

pack

RePack

MK11

RePack

jed

RePack

fifa19

RePack

RDR2

RePack

NEED FOR SPEED™ PAYBACK

4 сезон

9 сезон

Бесстыжие 9 сезон

Все сериалы

все сериалы на PB.wtf

RePack

FAR CRY 5

Anonymous, добрый вечер, мы не успеваем до 1 числа собрать деньги на оплату серверов, помогите нам пожалуйста в это трудное время. В качестве благодарности мы отключим Вам всю рекламу на сайте (укажите свой ник в строку Ваше имя)!

×
  
Magnet ссылка

Уличный кот по кличке Боб / A Street Cat Named Bob (Роджер Споттисвуд) [2016, драма, комедия, семейный, HDRip] Профессиональный многоголосый [Лицензия] piratbit.org

Уличный кот по кличке Боб через торрент piratbit.org

Размер: 1.37 GB | Добавлен: 4 года 3 мес. назад | Торрент скачан:1081 раз
Скачать  

25-02-2017 09:08 Уличный кот по кличке Боб Скачать торрент  


Уличный кот по кличке Боб / A Street Cat Named Bob
««Sometimes it takes nine lives to save one»»

ИНФОРМАЦИЯ:
Год выпуска:2016
Страна: Великобритания
Жанр: драма, комедия, семейный, биография
Продолжительность: 01:42:47
Перевод: Профессиональный многоголосый [Лицензия]
Режиссер: Роджер Споттисвуд

В Ролях:


Люк Тредэвэй (James), Bob the Cat (Bob), Рута Гедминтас (Betty), Джоанн Фроггатт (Val), Энтони Хэд (Jack Bowen), Даррен Эванс (Baz), Тони Джайавардена (Tony), Адам Ричез (Man with Car), Льюэлла Гидеон (Meter Woman), Лоррейн Эшборн (Local Housing Officer), Акбар Курта (Pharmacist), Джон Хеншоу (Tube Station Guard)

ОПИСАНИЕ:
Рассказ о том, как Джеймс Боуэн, восстанавливающийся от наркотической зависимости уличный музыкант, встретил рыжего уличного кота и его жизнь изменилась в лучшую сторону.

  • Мировая премьера:3 ноября 2016

    ТЕХ.ДАННЫЕ:
    Качество: HDRip
    Формат: AVI
    Видео: XviD, 720x304 (2.35:1), 1445 kbps, 23,976 fps, 0,276 bpp
    Аудио: AC3 / 5.1 / 48 kHz / 448 kbps /


    General
    Complete name : W:\Торенты\UliCHni.KoTT.BOB.2O16.P.HDRip.14OOMB.avi
    Format : AVI
    Format/Info : Audio Video Interleave
    File size : 1.37 GiB
    Duration : 1 h 42 min
    Overall bit rate : 1 903 kb/s
    Writing application : VirtualDubMod 1.5.10.2 (build 2540/release)
    Writing library : VirtualDubMod build 2540/release

    Video
    ID : 0
    Format : MPEG-4 Visual
    Format profile : Advanced Simple@L5
    Format settings, BVOP : 2
    Format settings, QPel : No
    Format settings, GMC : No warppoints
    Format settings, Matrix : Default (MPEG)
    Codec ID : XVID
    Codec ID/Hint : XviD
    Duration : 1 h 42 min
    Bit rate : 1 446 kb/s
    Width : 720 pixels
    Height : 304 pixels
    Display aspect ratio : 2.35:1
    Frame rate : 23.976 (24000/1001) FPS
    Color space : YUV
    Chroma subsampling : 4:2:0
    Bit depth : 8 bits
    Scan type : Progressive
    Compression mode : Lossy
    Bits/(Pixel*Frame) : 0.276
    Stream size : 1.04 GiB (76%)
    Writing library : XviD 1.2.1 (UTC 2008-12-04)

    Audio
    ID : 1
    Format : AC-3
    Format/Info : Audio Coding 3
    Mode extension : CM (complete main)
    Format settings, Endianness : Big
    Codec ID : 2000
    Duration : 1 h 42 min
    Bit rate mode : Constant
    Bit rate : 448 kb/s
    Channel(s) : 6 channels
    Channel positions : Front: L C R, Side: L R, LFE
    Sampling rate : 48.0 kHz
    Frame rate : 31.250 FPS (1536 spf)
    Compression mode : Lossy
    Stream size : 329 MiB (24%)
    Alignment : Split accross interleaves
    Interleave, duration : 42 ms (1.00 video frame)
    Interleave, preload duration : 500 ms
    Скриншоты:

    © Оформление by .::Ворон::.
    piratbit.org



  • Скачать Уличный кот по кличке Боб через торрент https://pic1.kartinco.top/images/61/ordi9.jpg Скачать фильм Уличный кот по кличке Боб через торрент бесплантно в хорошем качестве Е:Рассказ о том, как Джеймс Боуэн, восстанавливающийся от наркотической зависимости уличный музыкант, встретил рыжего уличного кота и его ... 9.1 10 16
    Info! Золотая раздача, скачанное не засчитывается.
    Торрент: Зарегистрирован [2017-02-25 09:08] · скачан: 1 081 раз
    Статус: √ проверено
    Размер: 1.37 GB
    Как cкачать? Как скачать Уличный кот по кличке Боб через торрент | UTorrent

    % Раздел Тема Автор DL S | L
    Фильмы [HD 720p, 1080p] (Хороший звук DUB, MVO) [ 7.75 GB ] Уличный кот по кличке Боб / A Street Cat Named Bob [2016 биография BDRip 1080p] [MVO] [ BD CEE] + [AVO] killermax2013 Скачать
    1 | 0
    Фильмы 2016 [DVDrip, WEB-DLRip, HDrip] (DUB, MVO) [ 1.46 GB ] Уличный кот по кличке Боб / A Street Cat Named Bob [2016 BDRip] многоголосый [] Twi7ter Скачать
    1 | 0
    Фильмы [HD 720p, 1080p] (Хороший звук DUB, MVO) [ 4.59 GB ] Уличный кот по кличке Боб / A Street Cat Named Bob [2016 биография BDRip 720p] MVO [ BD CEE] bober100 Скачать
    1 | 0
    Фильмы 2016 [DVDrip, WEB-DLRip, HDrip] (DUB, MVO) [ 1.44 GB ] Уличный кот по кличке Боб / A Street Cat Named Bob [2016 BDRip-AVC от sokol_ok] MVO [] sokol_ok Скачать
    2 | 0
    T Фильмы [HD 720p, 1080p] (Хороший звук DUB, MVO) [ 8.27 GB ] Уличный кот по кличке Боб / A Street Cat Named Bob [2016 BDRip 1080p] многоголосый [] Ворон Скачать
    1 | 0
    Фильмы 2016 [DVDrip, WEB-DLRip, HDrip] (DUB, MVO) [ 2.06 GB ] Уличный кот по кличке Боб / A Street Cat Named Bob [2016 биография HDRip многоголосый ""] coc900 Скачать
    1 | 0
    Фильмы 2016 [DVDrip, WEB-DLRip, HDrip] (DUB, MVO) [ 746 MB ] Уличный кот по кличке Боб / A Street Cat Named Bob [2016 BDRip-AVC от sokol_ok] MVO [] sokol_ok Скачать
    2 | 0

    28-11-2019 20:33  

    Отключить всю рекламу на сайте

    25-02-2017 10:40 Уличный кот по кличке Боб Скачать торрент  

    Бред зашкаливает в Гейропе, уже в зоофилию ударилисьpiratbit.org



    25-02-2017 14:07 Уличный кот по кличке Боб Скачать торрент  

    Ceasar писал(а):

    Бред зашкаливает в Гейропе, уже в зоофилию ударились

    Рыгнул типичный представитель узкого мира.piratbit.org



    25-02-2017 14:59 Уличный кот по кличке Боб Скачать торрент  

    Ceasar писал(а):

    Бред зашкаливает в Гейропе, уже в зоофилию ударились

    сначала посмотрите фильм а потом кудахтайте ибо этот фильм на реальных событиях как обычный кот вернул человеку веру в себя!piratbit.org



    25-02-2017 20:30 Уличный кот по кличке Боб Скачать торрент  

    Неплохой фильм, глянуть стоит, тем более на реальных событиях. По поводу первого коммента, солидарен с товарищами. "Как говорит наш шеф, если человек идиот то это надолго!"piratbit.org



    26-02-2017 17:35 Уличный кот по кличке Боб Скачать торрент  

    Ceasar писал(а):

    Бред зашкаливает в Гейропе, уже в зоофилию ударились

    Ты идиот?ты идиот?Ты идиот!piratbit.org



    03-03-2017 10:57 Уличный кот по кличке Боб Скачать торрент  

    скучное кино и кота кастрировали, извергиpiratbit.org



      Дорогой пользователь! Огромная просьба, поблагодарите релизера, оцените раздачу и оставьте свои комментарий, если Вы скачали Уличный кот по кличке Боб через торрент бесплатно! Внесите свою лепту в развитие PiratBit!
      Комментировать посты могут только пользователи прошедшие не сложную регистрацию
      Показать сообщения:    

      Уличный кот по кличке Боб через торрент
      Скачать бесплатно Уличный кот по кличке Боб
      Уличный кот по кличке Боб скачать торрент
      Уличный кот по кличке Боб смотреть онлайн
      Cкачать фильм Уличный кот по кличке Боб бесплатно
      Уличный кот по кличке Боб скачать торрент в хорошем качестве
      Уличный кот по кличке Боб смотреть онлайн бесплатно в хорошем качестве


      Вы не можете начинать темы
      Вы не можете отвечать на сообщения
      Вы не можете редактировать свои сообщения
      Вы не можете удалять свои сообщения
      Вы не можете голосовать в опросах
      Вы не можете прикреплять файлы к сообщениям
      Вы можете скачивать файлы