Доктор Стрэндж

Лицензия

Добыча

Дубляж

Дом дракона

1 сезон

Тор

Дубляж

В эфире

Дубляж

Там, где раки поют

MVO

Властелин колец

1 сезон

Ultimate

pack

Рекомендуем

30

Пиратка

ВАЖНО

ВАЖНО

Ghostwire

Пиратка

jed

RePack

nioh2

RePack

RDR2

RePack

NEED FOR SPEED™ PAYBACK

RePack

скачать торрент

Кинопоиск HD

Острые козырьки 6 сезон

6 сезон

FAR CRY 6

RePack

скачать торрент

Лицензия

скачать торрент

MVO

1

1 сезон

скачать торрент

1 сезон

скачать торрент

Лицензия

  

Семь нот в темноте / Sette note in nero (Лучио Фульчи) [1977, триллер, детектив, BDRip 1080p ] 2 x DVO (любительский)

Семь нот в темноте через торрент piratbit.org

Размер: 13.72 GB | Добавлен: 5 лет 9 мес. назад | Торрент скачан:16 раз
Смотреть онлайн | Скачать   

26-02-2017 06:23 Семь нот в темноте Скачать торрент  

Название: Семь нот в темноте
Оригинальное название: Sette note in nero
Год выпуска: 1977
Страна: Италия
Жанр: триллер, детектив
Продолжительность: 01:38:00
Перевод: любительский одноголосый

Режиссёр: Лучио Фульчи

В ролях: Дженнифер О’Нил, Габриэле Ферцетти, Марк Порель, Джанни Гарко, Ида Галли, Дженни Тамбури, Фабрицио Жовин, Риккардо Парисио Перротти, Бруно Кораццари, Вито Пассери, Франко Ангрисано, Паоло Пачино, Элизабет Тернер, Уго Д’Алессио, Луиджи Диберти, Линда Ли

Описание: В этом напряжённом триллере Л. Фульчи обратился к хичкоковским традициям. Вирджиния - женщина, обладающая экстрасенсорными способностями. Её посещает видение убийства. Она пытается помогать полиции в его раскрытии. Однако вскоре психоаналитик Вирджинии, а потом и она сама, понимают, что видение было не из прошлого, а из будущего. А жертвой покушения станет... Вирджиния...



Качество: BDRip 1080p
Формат: MKV
Видео: MPEG-4 AVC, 18.9 Mбит/с, 1888x1020, 23,976 кадра/с
Аудио 1: русский, AC3, 192 kbps, 2 ch, 48 kHz [любительский одноголосый, вариант 1]
Аудио 2: русский, AC3, 192 kbps, 2 ch, 48 kHz [любительский одноголосый, вариант 2]
Аудио 3: английский, DTS, 768 kbps, 1 ch, 48 kHz [оригинал]
Субтитры 1: русские
Субтитры 2: английские
Имеются неименованные главы/чаптеры.
Общее
Уникальный идентификатор : 242014760316238579886253590042415923902 (0xB61258EE660C66F89533BE4CB2BF02BE)
Полное имя : D:\Video\Семь нот в темноте.1977.BDRip.1080p by msltel.mkv
Формат : Matroska
Версия формата : Version 4 / Version 2
Размер файла : 13,7 Гбайт
Продолжительность : 1 ч. 38 м.
Общий поток : 20,0 Мбит/сек
Название фильма : Rip by msltel
Дата кодирования : UTC 2017-02-26 02:55:54
Программа кодирования : mkvmerge v8.2.0 ('World of Adventure') 64bit
Библиотека кодирования : libebml v1.3.1 + libmatroska v1.4.2

Видео
Идентификатор : 1
Формат : AVC
Формат/Информация : Advanced Video Codec
Профиль формата : High@L4.1
Параметр CABAC формата : Да
Параметр ReFrames формата : 4 кадра
Идентификатор кодека : V_MPEG4/ISO/AVC
Продолжительность : 1 ч. 38 м.
Битрейт : 18,9 Мбит/сек
Ширина : 1888 пикселей
Высота : 1020 пикселей
Соотношение сторон : 1,85:1
Режим частоты кадров : Постоянный
Частота кадров : 23,976 (24000/1001) кадра/сек
Цветовое пространство : YUV
Субдискретизация насыщенности : 4:2:0
Битовая глубина : 8 бит
Тип развёртки : Прогрессивная
Бит/(Пиксели*Кадры) : 0.409
Размер потока : 12,9 Гбайт (94%)
Библиотека кодирования : x264 core 146 r2538 121396c
Настройки программы : cabac=1 / ref=4 / deblock=1:-3:-2 / analyse=0x3:0x113 / me=umh / subme=11 / psy=1 / psy_rd=1.00:0.15 / mixed_ref=1 / me_range=32 / chroma_me=1 / trellis=2 / 8x8dct=1 / cqm=0 / deadzone=21,11 / fast_pskip=0 / chroma_qp_offset=-3 / threads=6 / lookahead_threads=1 / sliced_threads=0 / nr=0 / decimate=1 / interlaced=0 / bluray_compat=0 / constrained_intra=0 / bframes=6 / b_pyramid=2 / b_adapt=2 / b_bias=0 / direct=1 / weightb=1 / open_gop=0 / weightp=2 / keyint=230 / keyint_min=23 / scenecut=40 / intra_refresh=0 / rc_lookahead=40 / rc=crf / mbtree=0 / crf=21.9 / qcomp=0.60 / qpmin=0 / qpmax=69 / qpstep=4 / vbv_maxrate=62500 / vbv_bufsize=78125 / crf_max=0.0 / nal_hrd=none / filler=0 / ip_ratio=1.40 / pb_ratio=1.30 / aq=1:1.00
Язык : Italian
Default : Да
Forced : Нет

Аудио #1
Идентификатор : 2
Формат : AC-3
Формат/Информация : Audio Coding 3
Расширение режима : CM (complete main)
Параметр Endianness формата : Big
Идентификатор кодека : A_AC3
Продолжительность : 1 ч. 38 м.
Вид битрейта : Постоянный
Битрейт : 192 Кбит/сек
Каналы : 2 канала
Расположение каналов : Front: L R
Частота : 48,0 КГц
Частота кадров : 31,250 кадров/сек (1536 spf)
Битовая глубина : 16 бит
Метод сжатия : С потерями
Размер потока : 135 Мбайт (1%)
Заголовок : любительский одноголосый, вариант 1
Язык : Russian
Default : Да
Forced : Нет

Аудио #2
Идентификатор : 3
Формат : AC-3
Формат/Информация : Audio Coding 3
Расширение режима : CM (complete main)
Параметр Endianness формата : Big
Идентификатор кодека : A_AC3
Продолжительность : 1 ч. 38 м.
Вид битрейта : Постоянный
Битрейт : 192 Кбит/сек
Каналы : 2 канала
Расположение каналов : Front: L R
Частота : 48,0 КГц
Частота кадров : 31,250 кадров/сек (1536 spf)
Битовая глубина : 16 бит
Метод сжатия : С потерями
Размер потока : 135 Мбайт (1%)
Заголовок : любительский одноголосый, вариант 2
Язык : Russian
Default : Нет
Forced : Нет

Аудио #3
Идентификатор : 4
Формат : DTS
Формат/Информация : Digital Theater Systems
Режим : 16
Параметр Endianness формата : Big
Идентификатор кодека : A_DTS
Продолжительность : 1 ч. 38 м.
Вид битрейта : Постоянный
Битрейт : 768 Кбит/сек
Каналы : 1 канал
Расположение каналов : Front: C
Частота : 48,0 КГц
Частота кадров : 93,750 кадра/сек (512 spf)
Битовая глубина : 24 бит
Метод сжатия : С потерями
Размер потока : 538 Мбайт (4%)
Заголовок : original
Язык : English
Default : Нет
Forced : Нет

Текст #1
Идентификатор : 5
Формат : UTF-8
Идентификатор кодека : S_TEXT/UTF8
Идентификатор кодека/Информация : UTF-8 Plain Text
Продолжительность : 1 ч. 34 м.
Битрейт : 73 бит/сек
Count of elements : 858
Размер потока : 50,8 Кбайт (0%)
Заголовок : русские
Язык : Russian
Default : Нет
Forced : Нет

Текст #2
Идентификатор : 6
Формат : UTF-8
Идентификатор кодека : S_TEXT/UTF8
Идентификатор кодека/Информация : UTF-8 Plain Text
Продолжительность : 1 ч. 34 м.
Битрейт : 44 бит/сек
Count of elements : 858
Размер потока : 30,7 Кбайт (0%)
Заголовок : английские
Язык : English
Default : Нет
Forced : Нет

Меню
00:00:00.000 : :Chapter 01
00:12:33.335 : :Chapter 02
00:17:11.946 : :Chapter 03
00:25:57.097 : :Chapter 04
00:35:20.368 : :Chapter 05
00:41:27.026 : :Chapter 06
00:51:54.820 : :Chapter 07
01:04:07.677 : :Chapter 08
01:25:16.653 : :Chapter 09



Скачать Семь нот в темноте через торрент http://s019.radikal.ru/i636/1702/5e/b81d5064ce16.jpg Скачать, смотреть онлайн Семь нот в темноте бесплантно в хорошем качестве Описание: В этом напряжённом триллере Л. Фульчи обратился к хичкоковским традициям. Вирджиния - женщина, обладающая экстрасенсорными ... 5 10 1
Info! Золотая раздача, скачанное не засчитывается.
Торрент: Зарегистрирован [2017-02-26 06:23] · скачан: 16 раз
Статус: √ проверено
Размер: 13.72 GB
Как cкачать? Как скачать Семь нот в темноте через торрент | UTorrent

% Раздел Тема Автор DL S | L
Фильмы [HD 720p, 1080p] (Звук Cam, VO, DVO) [ 4.66 GB ] Семь нот в темноте / Sette note in nero | | 720p msltel Скачать
1 | 0

28-11-2019 20:33  


Отключить вcю реклaмy на сайте, в т.ч. и в плеере онлайн просмотра!

    Дорогой пользователь! Огромная просьба, поблагодарите релизера, оцените раздачу и оставьте свои комментарий, если Вы скачали Семь нот в темноте через торрент бесплатно!!
    Комментировать посты могут только пользователи прошедшие не сложную регистрацию
    Показать сообщения:    


    Семь нот в темноте через торрент
    Скачать бесплатно Семь нот в темноте
    Семь нот в темноте скачать торрент
    Семь нот в темноте смотреть онлайн
    Cкачать фильм Семь нот в темноте бесплатно
    Семь нот в темноте скачать торрент в хорошем качестве
    Семь нот в темноте смотреть онлайн бесплатно в хорошем качестве
    Вы не можете начинать темы
    Вы не можете отвечать на сообщения
    Вы не можете редактировать свои сообщения
    Вы не можете удалять свои сообщения
    Вы не можете голосовать в опросах
    Вы не можете прикреплять файлы к сообщениям
    Вы можете скачивать файлы
    Семь нот в темноте / Sette note in nero [1977, триллер, детектив, BDRip 1080p ] 2 x DVO смотреть онлайн, скачать торрент picoco.icu