Лицензия

MVO

1

1 сезон

Лицензия

Лицензия

13

MVO

1 сезон

Deluxe Edition

pack

Рекомендуем

30

Repack

ВАЖНО

ВАЖНО

Ghostwire

RePack

jed

RePack

fifa19

RePack

RDR2

RePack

NEED FOR SPEED™ PAYBACK

RePack

Кинопоиск HD

 Острые козырьки 6 сезон

6 сезон

FAR CRY 6

RePack

Лицензия

MVO

1

1 сезон

1 сезон

Лицензия

  

Бессмертная песня (Матвей Володарский) [1957, СССР, драма, SATRip от AVP Studio]

Бессмертная песня через торрент piratbit.org

Размер: 745 MB | Добавлен: 5 лет 7 мес. назад | Торрент скачан:4 раза
Смотреть онлайн Бессмертная песня | Скачать   

26-02-2017 09:29 Бессмертная песня Скачать торрент  

Бессмертная песня
Страна: СССР
Производство: Ленфильм

Жанр: драма
Год выпуска: 1957
Продолжительность: 01:11:39

Перевод: Не требуется
Cубтитры: нет
Оригинальная аудиодорожка: русский

Режиссер: Матвей Володарский

В ролях:
Фёдор Шмаков, Галина Карелина, Аркадий Трусов, Фёдор Федоровский, Вячеслав Воронин, Виктор Бриц, Нина Дробышева, Владимир Волчик, Борис Коковкин, Борис Муравьев, Владимир Брызгалов...
Об актёрах подробней

Описание:
По мотивам одноименного рассказа Виктора Авдеева.
1920 год. Красноармеец Юсалов, получив ранение, приезжает в кубанскую станицу и организовывает здесь музыкальную школу, разучивает с учениками «Интернационал», ставит первый революционный спектакль. Все это вызывает лютую ненависть у кулаков, они убивают красноармейца. Через много лет, в станице построят новую музыкальную школу и назовут ее именем погибшего героя.

Источник: DVB
Качество видео: SATRip
Формат видео: AVI

Видео: 640x480 (4:3), 25 fps, XviD ~ 1317 kbps avg, 0.171 bit/pixel
Аудио: 48 kHz, MP3 2.0, 128 kbps

Раздача от:
Общее
Полное имя : Bessmertnaya.pesnya.1957.SATRip-745_[New-team]_by_AVP_Studio.avi
Формат : AVI
Формат/Информация : Audio Video Interleave
Размер файла : 745 Мбайт
Продолжительность : 1 ч. 11 м.
Общий поток : 1455 Кбит/сек
Программа кодирования : VirtualDubMod 1.5.10.3 | www.virtualdub-fr.org || (build 2550/release)
Библиотека кодирования : VirtualDubMod build 2550/release

Видео
Идентификатор : 0
Формат : MPEG-4 Visual
Профиль формата : Advanced Simple@L5
Параметр BVOP формата : 1
Параметр QPel формата : Нет
Параметр GMC формата : Без точки перехода
Параметр матрицы формата : Выборочная
Идентификатор кодека : XVID
Идентификатор кодека/Подсказка : XviD
Продолжительность : 1 ч. 11 м.
Битрейт : 1317 Кбит/сек
Ширина : 640 пикселей
Высота : 480 пикселей
Соотношение сторон : 4:3
Частота кадров : 25,000 кадров/сек
Цветовое пространство : YUV
Субдискретизация насыщенности : 4:2:0
Битовая глубина : 8 бит
Тип развёртки : Прогрессивная
Метод сжатия : С потерями
Бит/(Пиксели*Кадры) : 0.171
Размер потока : 675 Мбайт (91%)
Библиотека кодирования : XviD 73

Аудио
Идентификатор : 1
Формат : MPEG Audio
Версия формата : Version 1
Профиль формата : Layer 3
Идентификатор кодека : 55
Идентификатор кодека/Подсказка : MP3
Продолжительность : 1 ч. 11 м.
Вид битрейта : Постоянный
Битрейт : 128 Кбит/сек
Каналы : 1 канал
Частота : 48,0 КГц
Метод сжатия : С потерями
Размер потока : 65,6 Мбайт (9%)
Выравнивание : Соединение по промежуткам
Продолжительность промежутка : 40 мс. (1,00 видеокадр)
Время предзагрузки промежутка : 504 мс.
Библиотека кодирования : LAME3.99r
Настройки программы : -m m -V 4 -q 2 -lowpass 20.5 -b 128



Скачать Бессмертная песня через торрент http://s020.radikal.ru/i720/1702/b6/c8c394ae8ecd.png Скачать, смотреть онлайн Бессмертная песня бесплантно в хорошем качестве Описание:По мотивам одноименного рассказа Виктора Авдеева.1920 год. Красноармеец Юсалов, получив ранение, приезжает в кубанскую станицу и ... 5 10 1
Info! Золотая раздача, скачанное не засчитывается.
Торрент: Зарегистрирован [2017-02-26 09:29] · скачан: 4 раз
Статус: √ проверено
Размер: 745 MB
Как cкачать? Как скачать Бессмертная песня через торрент | UTorrent

% Раздел Тема Автор DL S | L
Кино СССР [ 1.09 GB ] Бессмертная песня | | SATRip-AVC от AVP Studio AVP Studio Скачать
1 | 0
Кино СССР [ 1.09 GB ] Бессмертная песня | | SATRip от AVP Studio AVP Studio Скачать
1 | 0

28-11-2019 20:33  

Отключить вcю реклaмy на сайте

    Дорогой пользователь! Огромная просьба, поблагодарите релизера, оцените раздачу и оставьте свои комментарий, если Вы скачали Бессмертная песня через торрент бесплатно!!
    Комментировать посты могут только пользователи прошедшие не сложную регистрацию
    Показать сообщения:    


    Бессмертная песня через торрент
    Скачать бесплатно Бессмертная песня
    Бессмертная песня скачать торрент
    Бессмертная песня смотреть онлайн
    Cкачать фильм Бессмертная песня бесплатно
    Бессмертная песня скачать торрент в хорошем качестве
    Бессмертная песня смотреть онлайн бесплатно в хорошем качестве
    Вы не можете начинать темы
    Вы не можете отвечать на сообщения
    Вы не можете редактировать свои сообщения
    Вы не можете удалять свои сообщения
    Вы не можете голосовать в опросах
    Вы не можете прикреплять файлы к сообщениям
    Вы можете скачивать файлы