Достать ножи: Стеклянная луковица

MVO

Добыча

Дубляж

Уэнсдэй

1 сезон

Тор

Дубляж

13 клиническая

1 сезон

Жестокая ночь

MVO

Одни из нас

1 сезон

Deluxe

pack

Рекомендуем

30

Пиратка

ВАЖНО

ВАЖНО

Ghostwire

Пиратка

jed

RePack

nioh2

RePack

RDR2

RePack

NEED FOR SPEED™ PAYBACK

RePack

скачать торрент

Кинопоиск HD

Острые козырьки 6 сезон

6 сезон

FAR CRY 6

RePack

скачать торрент

Лицензия

скачать торрент

MVO

1

1 сезон

скачать торрент

1 сезон

скачать торрент

Лицензия

  

Убийца / Sicario (Дени Вильнёв ) [2015, боевик, триллер, драма, UHD WEBRip 2160p] Дубляж - [Лицензия]

Убийца через торрент piratbit.org

Размер: 24.74 GB | Добавлен: 5 лет 11 мес. назад | Торрент скачан:206 раз
Смотреть онлайн | Скачать | Поддержите нас   

26-02-2017 09:48 Убийца Скачать торрент  

УбийцаSicario«The border is just another line to cross» Год выпуска: 2015
Страна: США
Жанр: боевик, триллер, драма, криминал, детектив
Продолжительность: 02:01:19
Перевод: Дубляж - [Лицензия]
Субтитры: Английские, испанские
Режиссер: Дени Вильнёв
В ролях:
Эмили Блант (Kate Macer), Бенисио Дель Торо (Alejandro), Джош Бролин (Matt Graver), Виктор Гарбер (Dave Jennings), Джон Бернтал (Ted), Дэниэл Калуя (Reggie Wayne), Джеффри Донован (Steve Forsing), Рауль Трухильо (Rafael), Хулио Седильо (Fausto Alarcon), Хэнк Роджерсон (Phil Coopers), Бернардо Галлегос (Manuel Diaz), Максимилиано Эрнандес (Silvio)
Описание:
Безлюдные пустоши, по которым проходит граница между Мексикой и США, - это территория без правил, поле битвы между мексиканскими наркокартелями и американскими спецслужбами. Агент ФБР Кейт Мэйсер, которая работает в приграничных районах, старается придерживаться собственных идеалов, хотя и начинает ощущать, что исход войны с наркотрафиком складывается не в пользу служителей закона.
Рейтинг:

MPAA: R - Лицам до 17 лет обязательно присутствие взрослого
Премьера (мир): 19 мая 2015
Премьера (РФ): 26 ноября 2015, «WDSSPR»
Качество: UHD WEBRip 2160p
Формат: MKV
Видео: V_MPEGH/ISO/HEVC, 3840x1600 (2.40:1), 24668 kbps, 23,976 fps, 0,167 bpp
Аудио №1: русский / AC3 / 5.1 / 48 kHz / 384 kbps / ||
Аудио №2: английский / Atmos / TrueHD / 4070 kbps /
Навигация по главам: есть
General
Unique ID : 177610458359539411505761900261717151635 (0x859E87AF54E3D344B0A81007C8118F93)
Complete name : Sicario (2015) 2160p 4K UltraHD BluRay HEVC x265 Dolby Atmos.mkv
Format : Matroska
Format version : Version 4 / Version 2
File size : 24.7 GiB
Duration : 2 h 1 min
Overall bit rate mode : Variable
Overall bit rate : 29.2 Mb/s
Encoded date : UTC 2017-02-12 17:56:52
Writing application : mkvmerge v9.8.0 ('Kuglblids') 64bit
Writing library : libebml v1.3.4 + libmatroska v1.4.5

Video
ID : 1
Format : HEVC
Format/Info : High Efficiency Video Coding
Format profile : Main@L5@Main
Codec ID : V_MPEGH/ISO/HEVC
Duration : 2 h 1 min
Bit rate : 24.7 Mb/s
Width : 3 840 pixels
Height : 1 600 pixels
Display aspect ratio : 2.40:1
Frame rate mode : Constant
Frame rate : 23.976 (24000/1001) FPS
Color space : YUV
Chroma subsampling : 4:2:0
Bit depth : 8 bits
Bits/(Pixel*Frame) : 0.167
Stream size : 20.9 GiB (84%)
Writing library : x265 1.9:[Windows][GCC 4.9.0][64 bit] 8bit
Encoding settings : wpp / ctu=64 / min-cu-size=8 / max-tu-size=32 / tu-intra-depth=1 / tu-inter-depth=1 / me=1 / subme=2 / merange=57 / no-rect / no-amp / max-merge=2 / temporal-mvp / no-early-skip / rdpenalty=0 / no-tskip / no-tskip-fast / strong-intra-smoothing / no-lossless / no-cu-lossless / no-constrained-intra / no-fast-intra / open-gop / no-temporal-layers / interlace=0 / keyint=240 / min-keyint=24 / scenecut=40 / rc-lookahead=20 / lookahead-slices=8 / bframes=4 / bframe-bias=0 / b-adapt=2 / ref=3 / limit-refs=3 / no-limit-modes / weightp / no-weightb / aq-mode=1 / qg-size=32 / aq-strength=1.00 / cbqpoffs=0 / crqpoffs=0 / rd=3 / psy-rd=2.00 / rdoq-level=0 / psy-rdoq=0.00 / signhide / deblock / sao / no-sao-non-deblock / b-pyramid / cutree / no-intra-refresh / rc=abr / bitrate=25000 / qcomp=0.60 / qpmin=0 / qpmax=51 / qpstep=4 / ipratio=1.40 / pbratio=1.30
Default : Yes
Forced : No
Color range : Limited
Color primaries : BT.709
Transfer characteristics : BT.709
Matrix coefficients : BT.709

Audio #1
ID : 2
Format : AC-3
Format/Info : Audio Coding 3
Mode extension : CM (complete main)
Format settings, Endianness : Big
Codec ID : A_AC3
Duration : 2 h 1 min
Bit rate mode : Constant
Bit rate : 384 kb/s
Channel(s) : 6 channels
Channel positions : Front: L C R, Side: L R, LFE
Sampling rate : 48.0 kHz
Frame rate : 31.250 FPS (1536 spf)
Compression mode : Lossy
Delay relative to video : -67 ms
Stream size : 333 MiB (1%)
Language : Russian
Default : Yes
Forced : No

Audio #2
ID : 3
Format : Atmos / TrueHD
Codec ID : A_TRUEHD
Duration : 2 h 1 min
Bit rate mode : Variable
Bit rate : 4 070 kb/s
Maximum bit rate : 9 297 kb/s
Channel(s) : Object Based / 8 channels
Channel positions : Object Based / Front: L C R, Side: L R, Back: L R, LFE
Sampling rate : / 48.0 kHz
Frame rate : 1 200.000 FPS (40 spf)
Compression mode : Lossless
Delay relative to video : -83 ms
Stream size : 3.45 GiB (14%)
Language : English
Default : No
Forced : No

Text #1
ID : 4
Format : PGS
Muxing mode : zlib
Codec ID : S_HDMV/PGS
Codec ID/Info : Picture based subtitle format used on BDs/HD-DVDs
Duration : 1 h 50 min
Bit rate : 7 168 b/s
Count of elements : 1882
Stream size : 5.67 MiB (0%)
Language : English
Default : No
Forced : No

Text #2
ID : 5
Format : PGS
Muxing mode : zlib
Codec ID : S_HDMV/PGS
Codec ID/Info : Picture based subtitle format used on BDs/HD-DVDs
Duration : 1 h 53 min
Bit rate : 9 280 b/s
Count of elements : 2495
Stream size : 7.55 MiB (0%)
Language : English
Default : No
Forced : No

Text #3
ID : 6
Format : PGS
Muxing mode : zlib
Codec ID : S_HDMV/PGS
Codec ID/Info : Picture based subtitle format used on BDs/HD-DVDs
Duration : 1 h 52 min
Bit rate : 6 816 b/s
Count of elements : 1862
Stream size : 5.46 MiB (0%)
Language : Spanish
Default : No
Forced : No

Menu
00:00:00.000 : en:00:00:00.000
00:07:14.350 : en:00:07:14.350
00:12:55.107 : en:00:12:55.107
00:20:04.369 : en:00:20:04.369
00:25:24.814 : en:00:25:24.814
00:32:11.596 : en:00:32:11.596
00:39:24.820 : en:00:39:24.820
00:46:15.314 : en:00:46:15.314
00:53:24.576 : en:00:53:24.576
01:01:40.321 : en:01:01:40.321
01:10:49.119 : en:01:10:49.119
01:18:02.886 : en:01:18:02.886
01:30:59.370 : en:01:30:59.370
01:36:57.770 : en:01:36:57.770
01:47:42.038 : en:01:47:42.038
01:54:12.804 : en:01:54:12.804
02:01:20.064 : en:02:01:20.064


Скринлист



Скачать Убийца через торрент http://i90.fastpic.ru/big/2017/0226/9b/ce8edc7c3733259924eabcb9e25e639b.png Скачать, смотреть онлайн Убийца бесплантно в хорошем качестве Описание: Безлюдные пустоши, по которым проходит граница между Мексикой и США, - это территория без правил, поле битвы между мексиканскими ... 9 10 9
Info! Серебряная раздача, засчитывается только 50% скачанного.
Торрент: Зарегистрирован [2017-02-26 09:48] · скачан: 206 раз
Статус: √ проверено
Размер: 24.74 GB
Как cкачать? Как скачать Убийца через торрент | UTorrent

% Раздел Тема Автор DL S | L
Сборники и Сиквелы (48-60 fps) [ 9.56 GB ] Убийца: Дилогия / Sicario: Dilogy | DUB | 1080p 10 bit 60 FPS, DUB, AVO dd2d3 Скачать
2 | 0
Фильмы с авторской озвучкой [ 2.18 GB ] Убийца / Sicario | AVO | BDRip-AVC killermax2013 Скачать
2 | 0
Ultra HD (UHD: 2K, 4K, 8K) [ 70.29 GB ] Убийца / Sicario | iTunes | 2160p sheker187 Скачать
1 | 0
Фильмы [HD 720p, 1080p] (Хороший звук DUB, MVO) [ 6.08 GB ] Убийца / Sicario | Дубляж | 1080p, HEVC (10bit Мичман37 Скачать
1 | 0
Фильмы с авторской озвучкой [ 2.19 GB ] Убийца / Sicario | AVO | BDRip-AVC Enigma2010 Скачать
1 | 0
Фильмы 2015 [DVDrip, WEB-DLRip, HDrip] [ 1.46 GB ] Убийца / Sicario | Лицензия | BDRip Twi7ter Скачать
1 | 0
Фильмы 2015 [DVDrip, WEB-DLRip, HDrip] [ 2.13 GB ] Убийца / Sicario | Лицензия | BDRip Twi7ter Скачать
1 | 0

28-11-2019 20:33  


Отключить вcю реклaмy на сайте, в т.ч. и в плеере онлайн просмотра!

    Дорогой пользователь! Огромная просьба, поблагодарите релизера, оцените раздачу и оставьте свои комментарий, если Вы скачали Убийца через торрент бесплатно!!
    Комментировать посты могут только пользователи прошедшие не сложную регистрацию
    Показать сообщения:    


    Убийца через торрент
    Скачать бесплатно Убийца
    Убийца скачать торрент
    Убийца смотреть онлайн
    Cкачать фильм Убийца бесплатно
    Убийца скачать торрент в хорошем качестве
    Убийца смотреть онлайн бесплатно в хорошем качестве
    Вы не можете начинать темы
    Вы не можете отвечать на сообщения
    Вы не можете редактировать свои сообщения
    Вы не можете удалять свои сообщения
    Вы не можете голосовать в опросах
    Вы не можете прикреплять файлы к сообщениям
    Вы можете скачивать файлы
    Убийца / Sicario [2015, боевик, триллер, драма, UHD WEBRip 2160p] Дубляж - [Лицензия] смотреть онлайн, скачать торрент picoco.icu