1 сезон

3 сезон

iTunes

1

iTunes

DUB Netflix

iTunes

13

1 сезон

RePack

30

Deluxe

pack

Легкие деньги

ВАЖНО

ИГРА 18+

pack

RePack

MK11

RePack

jed

RePack

fifa19

RePack

RDR2

RePack

NEED FOR SPEED™ PAYBACK

4 сезон

9 сезон

Бесстыжие 9 сезон

Все сериалы

все сериалы на PB.wtf

RePack

FAR CRY 5

Anonymous, добрый вечер, мы не успеваем до 1 числа собрать деньги на оплату серверов, помогите нам пожалуйста в это трудное время. В качестве благодарности мы отключим Вам всю рекламу на сайте (укажите свой ник в строку Ваше имя)!

×
  
Magnet ссылка

Фантастические твари и где они обитают / Fantastic Beasts and Where to Find Them (Дэвид Йейтс / David Yates) [2016, Великобритания, США, фэнтези, приключения, семейный, BDRip-AVC от sokol_ok] Dub [Лицензия] piratbit.org

Фантастические твари и где они обитают через торрент piratbit.org

Раздают: 2 [ 0 KB/s ]
Размер: 746 MB | Добавлен: 4 года 3 мес. назад | Торрент скачан:487 раз
Скачать  

26-02-2017 11:34 Фантастические твари и где они обитают Скачать торрент  

Фантастические твари и где они обитают
Fantastic Beasts and Where to Find Them

«Открой новую главу волшебного мира Дж.К.Роулинг»


Страна: Великобритания, США
Жанр: фэнтези, приключения, семейный

Год выпуска: 2016
Продолжительность: 02:12:52

Перевод: Профессиональный (полное дублирование) [Blu-ray CEE]
Cубтитры: русские (форсированные)
Оригинальная аудиодорожка: нет

Режиссер: Дэвид Йейтс / David Yates

В ролях: Эдди Редмэйн, Кэтрин Уотерстон, Дэн Фоглер, Элисон Судол, Колин Фаррелл, Кармен Эджого, Эзра Миллер, Саманта Мортон, Рон Перлман, Джон Войт, Джош Коудери, Ронан Рафтери

Описание:
Поиск и изучение необычайных волшебных существ приводят магозоолога Ньюта Саламандера в Нью-Йорк. Скорее всего, он отбыл бы на поезде дальше, если бы не не маг (так в Америке называют магглов) по имени Якоб, оставленный в неположенном месте магический чемодан и побег из него фантастических животных Ньюта.



Релиз:

Автор рипа: stalkerok

Сэмпл

Качество видео: BDRip-AVC [Fantastic Beasts and Where to Find Them 2016 1080p Blu-ray AVC TrueHD 7.1-ESiR]
Формат видео: MKV
Видео кодек: AVC
Аудио кодек: AAC
Видео: 719 Кбит/сек, 744*310 (2,40:1), в 23,976 (24000/1001) кадра/сек, AVC
Аудио: русский, 64,0 Кбит/сек, 48,0 КГц / 24,0 КГц, 2 канала, AAC (HE-AAC / LC)
Навигация по главам: есть

x264 [info]: frame I:1653 Avg QP:14.90 size: 33155
x264 [info]: frame P:40550 Avg QP:19.26 size: 8550
x264 [info]: frame B:148941 Avg QP:20.84 size: 2115

Общее
Уникальный идентификатор : 190679090185290477626690663714708649177 (0x8F7374FB0B6A95A68FE242F0EB1DF4D9)
Полное имя : M:\!!!!!!!!!!!!!!!!!!!\Fantastic Beasts and Where to Find Them (2016)\Fantastic.Beasts.and.Where.to.Find.Them.2016.BDRip-AVC.RUS..stalkerok.new-team.mkv
Формат : Matroska
Версия формата : Version 4 / Version 2
Размер файла : 746 Мбайт
Продолжительность : 2 ч. 12 м.
Общий поток : 785 Кбит/сек
Название фильма : Fantastic Beasts and Where to Find Them (2016) (Rip by stalkerok)
Дата кодирования : UTC 2017-02-26 11:25:25
Программа кодирования : mkvmerge v8.6.1 ('Flying') 64bit
Библиотека кодирования : libebml v1.3.3 + libmatroska v1.4.4

Видео
Идентификатор : 1
Формат : AVC
Формат/Информация : Advanced Video Codec
Профиль формата : High@L4.1
Параметр CABAC формата : Да
Параметр ReFrames формата : 15 кадров
Идентификатор кодека : V_MPEG4/ISO/AVC
Продолжительность : 2 ч. 12 м.
Битрейт : 719 Кбит/сек
Ширина : 744 пикселя
Высота : 310 пикселей
Соотношение сторон : 2,40:1
Режим частоты кадров : Постоянный
Частота кадров : 23,976 (24000/1001) кадра/сек
Цветовое пространство : YUV
Субдискретизация насыщенности : 4:2:0
Битовая глубина : 8 бит
Тип развёртки : Прогрессивная
Бит/(Пиксели*Кадры) : 0.130
Размер потока : 683 Мбайт (92%)
Заголовок : Fantastic Beasts and Where to Find Them (2016) (Rip by stalkerok)
Библиотека кодирования : x264 core 148 r2705+54 9f484c1 t_mod_Custom [8-bit@all X86_64]
Настройки программы : cabac=1 / ref=15 / deblock=1:-3:-2 / analyse=0x3:0x133 / me=umh / subme=10 / psy=1 / fade_compensate=0.00 / psy_rd=1.00:0.00 / mixed_ref=1 / me_range=32 / chroma_me=1 / trellis=2 / 8x8dct=1 / cqm=0 / deadzone=21,11 / fast_pskip=0 / chroma_qp_offset=-2 / threads=10 / lookahead_threads=2 / sliced_threads=0 / nr=0 / decimate=0 / interlaced=0 / bluray_compat=0 / constrained_intra=0 / fgo=0 / bframes=15 / b_pyramid=2 / b_adapt=2 / b_bias=0 / direct=3 / weightb=1 / open_gop=0 / weightp=2 / keyint=240 / keyint_min=23 / scenecut=40 / intra_refresh=0 / rc_lookahead=60 / rc=2pass / mbtree=0 / bitrate=719 / ratetol=1.0 / qcomp=0.65 / qpmin=0:0:0 / qpmax=69:69:69 / qpstep=4 / cplxblur=20.0 / qblur=0.5 / vbv_maxrate=50000 / vbv_bufsize=62500 / nal_hrd=none / filler=0 / ip_ratio=1.40 / pb_ratio=1.30 / aq=3:0.90 / aq-sensitivity=10.00 / aq-factor=1.00:1.00:1.00 / aq2=0 / aq3=0
Default : Да
Forced : Нет

Аудио
Идентификатор : 2
Формат : AAC
Формат/Информация : Advanced Audio Codec
Профиль формата : HE-AAC / LC
Идентификатор кодека : A_AAC
Продолжительность : 2 ч. 12 м.
Битрейт : 64,0 Кбит/сек
Каналы : 2 канала
Расположение каналов : Front: L R
Частота : 48,0 КГц / 24,0 КГц
Частота кадров : 23,438 кадра/сек (1024 spf)
Метод сжатия : С потерями
Задержка видео : 31 мс.
Размер потока : 60,8 Мбайт (8%)
Язык : Russian
Default : Да
Forced : Нет

Текст
Идентификатор : 3
Формат : UTF-8
Идентификатор кодека : S_TEXT/UTF8
Идентификатор кодека/Информация : UTF-8 Plain Text
Продолжительность : 2 ч. 2 м.
Битрейт : 2 бит/сек
Count of elements : 40
Размер потока : 1,81 Кбайт (0%)
Заголовок : forced
Язык : Russian
Default : Да
Forced : Нет

Меню
00:00:00.000 : en:Chapter 1
00:08:40.269 : en:Chapter 2
00:18:55.717 : en:Chapter 3
00:28:23.660 : en:Chapter 4
00:38:34.186 : en:Chapter 5
00:48:08.594 : en:Chapter 6
00:58:19.245 : en:Chapter 7
01:09:14.692 : en:Chapter 8
01:17:26.391 : en:Chapter 9
01:29:33.659 : en:Chapter 10
01:38:02.084 : en:Chapter 11
01:50:27.871 : en:Chapter 12
01:59:04.470 : en:Chapter 13
02:04:11.944 : en:Chapter 14
piratbit.org



Скачать Фантастические твари и где они обитают через торрент http://i72.fastpic.ru/big/2015/0531/46/68ef8a2783b58e5344cc30bbd3f1b046.png Скачать фильм Фантастические твари и где они обитают через торрент бесплантно в хорошем качестве Описание:Поиск и изучение необычайных волшебных существ приводят магозоолога Ньюта Саламандера в Нью-Йорк. Скорее всего, он отбыл бы на ... 9.1 10 10
Info! Золотая раздача, скачанное не засчитывается.
Торрент: Зарегистрирован [2017-02-26 11:34] · скачан: 487 раз
Статус: √ проверено
Размер: 746 MB
Как cкачать? Как скачать Фантастические твари и где они обитают через торрент | UTorrent

% Раздел Тема Автор DL S | L
Ultra HD (UHD: 2K, 4K, 8K) — видео сверхвысокой чёткости [ 57.5 GB ] Фантастические твари и где они обитают / Fantastic Beasts and Where to Find Them [2016 UHD BDRemux 2160p] DUB [] + 2xAVO sheker187 Скачать
1 | 0
Фильмы (HD 720p, 1080p) (48-60 fps) [ 4.31 GB ] Фантастические твари и где они обитают / Fantastic Beasts and Where to Find Them [2016 BDRip 720p 60 fps от еnvy / NNNB] DUB / еnvy Скачать
15 | 0
Фильмы [HD 720p, 1080p] (Хороший звук DUB, MVO) [ 7.72 GB ] Фантастические твари и где они обитают / Fantastic Beasts and Where to Find Them [2016 BDRip 1080p от еnvy / NNNB] DUB / еnvy Скачать
41 | 1
Фильмы [HD 720p, 1080p] (Хороший звук DUB, MVO) [ 5.58 GB ] Фантастические твари и где они обитают / Fantastic Beasts and Where to Find Them [2016 BDRip 1080p [HDR] HEVC ] Мичман37 Скачать
3 | 1
Ultra HD (UHD: 2K, 4K, 8K) — видео сверхвысокой чёткости [ 31.88 GB ] Фантастические твари и где они обитают / Fantastic Beasts and Where to Find Them [2016 UHD BDRip 2160p] DUB sheker187 Скачать
1 | 0
Ultra HD (UHD: 2K, 4K, 8K) — видео сверхвысокой чёткости [ 59.31 GB ] Фантастические твари и где они обитают / Fantastic Beasts and Where to Find Them [2016 UHD Blu-ray 2160p] - [] sheker187 Скачать
1 | 0
Ultra HD (UHD: 2K, 4K, 8K) — видео сверхвысокой чёткости [ 50.86 GB ] Фантастические твари и где они обитают / Fantastic Beasts and Where to Find Them [2016 экранизация UHD BDRemux 2160p] DUB [] bober100 Скачать
2 | 0

28-11-2019 20:33  

Отключить всю рекламу на сайте

    Дорогой пользователь! Огромная просьба, поблагодарите релизера, оцените раздачу и оставьте свои комментарий, если Вы скачали Фантастические твари и где они обитают через торрент бесплатно! Внесите свою лепту в развитие PiratBit!
    Комментировать посты могут только пользователи прошедшие не сложную регистрацию
    Показать сообщения:    

    Фантастические твари и где они обитают через торрент
    Скачать бесплатно Фантастические твари и где они обитают
    Фантастические твари и где они обитают скачать торрент
    Фантастические твари и где они обитают смотреть онлайн
    Cкачать фильм Фантастические твари и где они обитают бесплатно
    Фантастические твари и где они обитают скачать торрент в хорошем качестве
    Фантастические твари и где они обитают смотреть онлайн бесплатно в хорошем качестве


    Вы не можете начинать темы
    Вы не можете отвечать на сообщения
    Вы не можете редактировать свои сообщения
    Вы не можете удалять свои сообщения
    Вы не можете голосовать в опросах
    Вы не можете прикреплять файлы к сообщениям
    Вы можете скачивать файлы