1 сезон

3 сезон

iTunes

1

iTunes

DUB Netflix

iTunes

13

1 сезон

RePack

30

Deluxe

pack

Легкие деньги

ВАЖНО

ИГРА 18+

pack

RePack

MK11

RePack

jed

RePack

fifa19

RePack

RDR2

RePack

NEED FOR SPEED™ PAYBACK

4 сезон

9 сезон

Бесстыжие 9 сезон

Все сериалы

все сериалы на PB.wtf

RePack

FAR CRY 5

Anonymous, доброй ночи, мы не успеваем до 1 числа собрать деньги на оплату серверов, помогите нам пожалуйста в это трудное время. В качестве благодарности мы отключим Вам всю рекламу на сайте (укажите свой ник в строку Ваше имя)!

×
  
Magnet ссылка

Уличный кот по кличке Боб / A Street Cat Named Bob (Роджер Споттисвуд) [2016 г., драма, комедия, семейный, биография, HDRip, Профессиональный многоголосый "Лицензия"] piratbit.org

Уличный кот по кличке Боб через торрент piratbit.org

Размер: 2.06 GB | Добавлен: 4 года 3 мес. назад | Торрент скачан:123 раза
Скачать  

26-02-2017 18:19 Уличный кот по кличке Боб Скачать торрент  

Уличный кот по кличке Боб / A Street Cat Named Bob
Год выпуска: 2016
Страна: Великобритания / Shooting Script Films, Hindsight, Iris Productions
Жанр: драма, комедия, семейный, биография
Продолжительность: 01:42:48
Перевод: Профессиональный многоголосый (Лицензия)

Режиссер: Роджер Споттисвуд

rating

В ролях: Люк Тредэвэй, Bob the Cat, Рута Гедминтас, Джоанн Фроггатт, Энтони Хэд, Даррен Эванс, Тони Джайавардена, Адам Ричез, Льюэлла Гидеон, Лоррейн Эшборн

Описание: Рассказ о том, как Джеймс Боуэн, восстанавливающийся от наркотической зависимости уличный музыкант, встретил рыжего уличного кота и его жизнь изменилась в лучшую сторону.

Качество: HDRip
Формат: AVI
Видео кодек: XviD
Аудио кодек: AC3
Видео: 720x304 (2.37:1), 23.976 fps, XviD build 50 ~2409 kbps avg, 0.46 bit/pixel
Аудио: 48 kHz, AC3 Dolby Digital, 3/2 (L,C,R,l,r) + LFE ch, ~448 kbps

Общее
Полное имя : F:\ФИЛЬМЫ\Уличный кот по кличке Боб.2016.avi
Формат : AVI
Формат/Информация : Audio Video Interleave
Профиль формата : OpenDML
Размер файла : 2,06 Гбайт
Продолжительность : 1 ч. 42 м.
Общий поток : 2864 Кбит/сек
Программа кодирования : VirtualDubMod 1.5.10.3 | www.virtualdub-fr.org || (build 2550/release)
Библиотека кодирования : VirtualDubMod build 2550/release

Видео
Идентификатор : 0
Формат : MPEG-4 Visual
Профиль формата : Advanced Simple@L5
Параметр BVOP формата : 1
Параметр QPel формата : Нет
Параметр GMC формата : Без точки перехода
Параметр матрицы формата : Default (MPEG)
Идентификатор кодека : XVID
Идентификатор кодека/Подсказка : XviD
Продолжительность : 1 ч. 42 м.
Битрейт : 2404 Кбит/сек
Ширина : 720 пикселей
Высота : 304 пикселя
Соотношение сторон : 2,35:1
Частота кадров : 23,976 (24000/1001) кадра/сек
Цветовое пространство : YUV
Субдискретизация насыщенности : 4:2:0
Битовая глубина : 8 бит
Тип развёртки : Прогрессивная
Метод сжатия : С потерями
Бит/(Пиксели*Кадры) : 0.458
Размер потока : 1,73 Гбайт (84%)
Библиотека кодирования : XviD 1.2.1 (UTC 2008-12-04)

Аудио
Идентификатор : 1
Формат : AC-3
Формат/Информация : Audio Coding 3
Расширение режима : CM (complete main)
Параметр Endianness формата : Big
Идентификатор кодека : 2000
Продолжительность : 1 ч. 42 м.
Вид битрейта : Постоянный
Битрейт : 448 Кбит/сек
Каналы : 6 каналов
Расположение каналов : Front: L C R, Side: L R, LFE
Частота : 48,0 КГц
Частота кадров : 31,250 кадров/сек (1536 spf)
Битовая глубина : 16 бит
Метод сжатия : С потерями
Размер потока : 329 Мбайт (16%)
Выравнивание : Разделение по промежуткам
Продолжительность промежутка : 42 мс. (1,00 видеокадр)
Время предзагрузки промежутка : 500 мс.

piratbit.org



Скачать Уличный кот по кличке Боб через торрент https://pic1.kartinco.top/images/11/qv7cy.jpg Скачать фильм Уличный кот по кличке Боб через торрент бесплантно в хорошем качестве Описание: Рассказ о том, как Джеймс Боуэн, восстанавливающийся от наркотической зависимости уличный музыкант, встретил рыжего уличного кота ... 9.5 10 2
Торрент: Зарегистрирован [2017-02-26 18:19] · скачан: 123 раз
Статус: √ проверено
Размер: 2.06 GB
Как cкачать? Как скачать Уличный кот по кличке Боб через торрент | UTorrent

% Раздел Тема Автор DL S | L
Фильмы [HD 720p, 1080p] (Хороший звук DUB, MVO) [ 7.75 GB ] Уличный кот по кличке Боб / A Street Cat Named Bob [2016 биография BDRip 1080p] [MVO] [ BD CEE] + [AVO] killermax2013 Скачать
1 | 0
Фильмы 2016 [DVDrip, WEB-DLRip, HDrip] (DUB, MVO) [ 1.46 GB ] Уличный кот по кличке Боб / A Street Cat Named Bob [2016 BDRip] многоголосый [] Twi7ter Скачать
1 | 0
Фильмы [HD 720p, 1080p] (Хороший звук DUB, MVO) [ 4.59 GB ] Уличный кот по кличке Боб / A Street Cat Named Bob [2016 биография BDRip 720p] MVO [ BD CEE] bober100 Скачать
1 | 0
Фильмы 2016 [DVDrip, WEB-DLRip, HDrip] (DUB, MVO) [ 1.44 GB ] Уличный кот по кличке Боб / A Street Cat Named Bob [2016 BDRip-AVC от sokol_ok] MVO [] sokol_ok Скачать
2 | 0
Фильмы 2016 [DVDrip, WEB-DLRip, HDrip] (DUB, MVO) [ 1.37 GB ] Уличный кот по кличке Боб / A Street Cat Named Bob [2016 HDRip] многоголосый [] Ворон Скачать
1 | 0
T Фильмы [HD 720p, 1080p] (Хороший звук DUB, MVO) [ 8.27 GB ] Уличный кот по кличке Боб / A Street Cat Named Bob [2016 BDRip 1080p] многоголосый [] Ворон Скачать
1 | 0
Фильмы 2016 [DVDrip, WEB-DLRip, HDrip] (DUB, MVO) [ 746 MB ] Уличный кот по кличке Боб / A Street Cat Named Bob [2016 BDRip-AVC от sokol_ok] MVO [] sokol_ok Скачать
2 | 0

28-11-2019 20:33  

Отключить всю рекламу на сайте

27-02-2017 13:48 Уличный кот по кличке Боб Скачать торрент  

Хороший фильм.piratbit.org



    Дорогой пользователь! Огромная просьба, поблагодарите релизера, оцените раздачу и оставьте свои комментарий, если Вы скачали Уличный кот по кличке Боб через торрент бесплатно! Внесите свою лепту в развитие PiratBit!
    Комментировать посты могут только пользователи прошедшие не сложную регистрацию
    Показать сообщения:    

    Уличный кот по кличке Боб через торрент
    Скачать бесплатно Уличный кот по кличке Боб
    Уличный кот по кличке Боб скачать торрент
    Уличный кот по кличке Боб смотреть онлайн
    Cкачать фильм Уличный кот по кличке Боб бесплатно
    Уличный кот по кличке Боб скачать торрент в хорошем качестве
    Уличный кот по кличке Боб смотреть онлайн бесплатно в хорошем качестве


    Вы не можете начинать темы
    Вы не можете отвечать на сообщения
    Вы не можете редактировать свои сообщения
    Вы не можете удалять свои сообщения
    Вы не можете голосовать в опросах
    Вы не можете прикреплять файлы к сообщениям
    Вы можете скачивать файлы