2 сезон

iTunes

WEBRip

1

2 сезон

iTunes

1 сезон

1 сезон

RePack

30

Новинка

ВАЖНО

ИГРА 18+

pack

RePack

MK11
pack

Легкие деньги

RePack

jed

RePack

fifa19

RePack

RDR2

RePack

NEED FOR SPEED™ PAYBACK

4 сезон

9 сезон

Бесстыжие 9 сезон

Все сериалы

все сериалы на PB.wtf

RePack

FAR CRY 5

Anonymous, доброе утро, мы не успеваем собрать деньги на оплату серверов за февраль, помогите нам пожалуйста в это трудное время. В качестве благодарности мы отключим Вам всю рекламу на сайте (укажите свой ник в строку Ваше имя)!

×
  
Magnet ссылка

Манчестер у моря / Манчестер біля моря / Manchester by the Sea (Кеннет Лонерган) [2016, драма, BDRip 720p] [Ukr MVO] (студия Цікава ідея) piratbit.org

Манчестер у моря через торрент piratbit.org

Размер: 5.27 GB | Добавлен: 4 года назад | Торрент скачан:51 раз
Скачать  

26-02-2017 20:28 Манчестер у моря Скачать торрент  

Манчестер у моря / Манчестер біля моря / Manchester by the Sea


Год выпуска: 2016
Выпущено: США
Жанр: драма
Продолжительность: 02:17:32
Перевод: Украинский (профессиональный, многоголосный) [студия Цікава ідея]
Субтитры: английские

Режиссер: Кеннет Лонерган

В ролях: Кейси Аффлек, Бен О’Брайэн, Кайл Чандлер, Ричард Донелли, Virginia Loring Cooke, Куинси Тайлер Бернстайн, Мисси Ягер, Стивен Хендерсон, Бен Хэнсон, Мэри Мэллен

Описание: Ленивый и безответственный сантехник Ли после внезапной смерти брата назначен опекуном своего племянника-подростка. Возвращение в родной город дает новый ход трагедии, сокрытой в его прошлом.


Релиз --

Качество: BDRip 720p
Формат: MKV
Видео кодек: AVC
Видео: V_MPEG4/ISO/AVC, 1280x692, ~4591 kbps avg, 23,976 fps
Аудио: 48 kHz, AC3 Dolby Digital, 6 ch, ~448 kbps [Ukr MVO]
Аудио: 48 kHz, AC3 Dolby Digital, 6 ch, ~448 kbps [оригинал]

Цитата:

Переведено и озвучено в рамках проекта Hurtom

General
Unique ID : 216952936197177432234199890993402866994 (0xA3379D9A38C728AF9E4F68402FFBED32)
Complete name : Manchester by the Sea (2016) [ukr,eng] BDRip 720p [Hurtom].mkv
Format : Matroska
Format version : Version 4 / Version 2
File size : 5.27 GiB
Duration : 2 h 17 min
Overall bit rate : 5 489 kb/s
Movie name : Манчестер біля моря / Manchester by the Sea (2016) [Hurtom]
Encoded date : UTC 2017-02-26 15:16:54
Writing application : mkvmerge v9.9.0 ('Pick Up') 64bit
Writing library : libebml v1.3.4 + libmatroska v1.4.5

Video
ID : 1
Format : AVC
Format/Info : Advanced Video Codec
Format profile : High@L4.1
Format settings, CABAC : Yes
Format settings, ReFrames : 8 frames
Codec ID : V_MPEG4/ISO/AVC
Duration : 2 h 17 min
Bit rate : 4 591 kb/s
Width : 1 280 pixels
Height : 692 pixels
Display aspect ratio : 1.85:1
Frame rate mode : Constant
Frame rate : 23.976 (24000/1001) FPS
Color space : YUV
Chroma subsampling : 4:2:0
Bit depth : 8 bits
Scan type : Progressive
Bits/(Pixel*Frame) : 0.216
Stream size : 4.41 GiB (84%)
Writing library : x264 core 148 r2744 b97ae06
Encoding settings : cabac=1 / ref=8 / deblock=1:-1:-1 / analyse=0x3:0x133 / me=umh / subme=10 / psy=1 / psy_rd=1.00:0.15 / mixed_ref=1 / me_range=32 / chroma_me=1 / trellis=2 / 8x8dct=1 / cqm=0 / deadzone=21,11 / fast_pskip=0 / chroma_qp_offset=-3 / threads=12 / lookahead_threads=1 / sliced_threads=0 / nr=0 / decimate=1 / interlaced=0 / bluray_compat=0 / constrained_intra=0 / bframes=3 / b_pyramid=2 / b_adapt=2 / b_bias=0 / direct=3 / weightb=1 / open_gop=0 / weightp=2 / keyint=240 / keyint_min=23 / scenecut=40 / intra_refresh=0 / rc_lookahead=60 / rc=crf / mbtree=1 / crf=19.0 / qcomp=0.60 / qpmin=0 / qpmax=69 / qpstep=4 / vbv_maxrate=31250 / vbv_bufsize=31250 / crf_max=0.0 / nal_hrd=none / filler=0 / ip_ratio=1.40 / aq=1:1.00
Default : Yes
Forced : No

Audio #1
ID : 2
Format : AC-3
Format/Info : Audio Coding 3
Mode extension : CM (complete main)
Format settings, Endianness : Big
Codec ID : A_AC3
Duration : 2 h 17 min
Bit rate mode : Constant
Bit rate : 448 kb/s
Channel(s) : 6 channels
Channel positions : Front: L C R, Side: L R, LFE
Sampling rate : 48.0 kHz
Frame rate : 31.250 FPS (1536 spf)
Bit depth : 16 bits
Compression mode : Lossy
Stream size : 441 MiB (8%)
Title : Озвучено студією Омікрон
Language : Ukrainian
Default : Yes
Forced : No

Audio #2
ID : 3
Format : AC-3
Format/Info : Audio Coding 3
Mode extension : CM (complete main)
Format settings, Endianness : Big
Codec ID : A_AC3
Duration : 2 h 17 min
Bit rate mode : Constant
Bit rate : 448 kb/s
Channel(s) : 6 channels
Channel positions : Front: L C R, Side: L R, LFE
Sampling rate : 48.0 kHz
Frame rate : 31.250 FPS (1536 spf)
Bit depth : 16 bits
Compression mode : Lossy
Stream size : 441 MiB (8%)
Title : Original
Language : English
Default : No
Forced : No

Text
ID : 4
Format : UTF-8
Codec ID : S_TEXT/UTF8
Codec ID/Info : UTF-8 Plain Text
Duration : 2 h 9 min
Bit rate : 62 b/s
Count of elements : 1756
Stream size : 59.5 KiB (0%)
Title : Original
Language : English
Default : Yes
Forced : No
piratbit.org



Скачать Манчестер у моря через торрент http://i91.fastpic.ru/big/2017/0209/16/a733152a31cfa92571be52f377000616.jpg Скачать фильм Манчестер у моря через торрент бесплантно в хорошем качестве Описание: Ленивый и безответственный сантехник Ли после внезапной смерти брата назначен опекуном своего племянника-подростка. Возвращение в ... 10 10 3
Торрент: Зарегистрирован [2017-02-26 20:28] · скачан: 51 раз
Статус: √ проверено
Размер: 5.27 GB
Как cкачать? Как скачать Манчестер у моря через торрент | UTorrent

28-11-2019 20:33  

Отключить всю рекламу на сайте

    Дорогой пользователь! Огромная просьба, поблагодарите релизера, оцените раздачу и оставьте свои комментарий, если Вы скачали Манчестер у моря через торрент бесплатно! Внесите свою лепту в развитие PiratBit!
    Комментировать посты могут только пользователи прошедшие не сложную регистрацию
    Показать сообщения:    

    Манчестер у моря через торрент
    Скачать бесплатно Манчестер у моря
    Манчестер у моря скачать торрент
    Манчестер у моря смотреть онлайн
    Cкачать фильм Манчестер у моря бесплатно
    Манчестер у моря скачать торрент в хорошем качестве
    Манчестер у моря смотреть онлайн бесплатно в хорошем качестве


    Вы не можете начинать темы
    Вы не можете отвечать на сообщения
    Вы не можете редактировать свои сообщения
    Вы не можете удалять свои сообщения
    Вы не можете голосовать в опросах
    Вы не можете прикреплять файлы к сообщениям
    Вы можете скачивать файлы