1 сезон

3 сезон

iTunes

1

iTunes

DUB Netflix

iTunes

13

1 сезон

RePack

30

Deluxe

pack

Легкие деньги

ВАЖНО

ИГРА 18+

pack

RePack

MK11

RePack

jed

RePack

fifa19

RePack

RDR2

RePack

NEED FOR SPEED™ PAYBACK

4 сезон

9 сезон

Бесстыжие 9 сезон

Все сериалы

все сериалы на PB.wtf

RePack

FAR CRY 5

Anonymous, добрый день, мы не успеваем до 1 числа собрать деньги на оплату серверов, помогите нам пожалуйста в это трудное время. В качестве благодарности мы отключим Вам всю рекламу на сайте (укажите свой ник в строку Ваше имя)!

×
  
Magnet ссылка

Шестизарядный спаситель / Six Gun Savior (Кирк Мюррэй) [2016, фантастика, боевик, драма, WEB-DLRip] Любительский многоголосый [Синема УС] piratbit.org

Шестизарядный спаситель через торрент piratbit.org

Размер: 1.37 GB | Добавлен: 4 года 3 мес. назад | Торрент скачан:311 раз
Скачать  

27-02-2017 17:04 Шестизарядный спаситель Скачать торрент  

Шестизарядный спаситель / Six Gun Savior

Год выпуска: 2016
Страна: США
Жанр: фантастика, боевик, драма, приключения, вестерн

Продолжительность: 01:42:22
Перевод: Любительский многоголосый [Синема УС]
Режиссер: Кирк Мюррэй
В ролях:
Эрик Робертс (The Devil), Мартин Коув (The Mentor), Калео Гриффит (Lane McCrae), Мэттью Зифф (Kyle «Hawk» Hawkins), Блейн Грэй (Grant Dillion), Лоррэйн Зифф (Zathera), Мишель Роуз (Elizabeth Russell), Адам Леклер (Cody McCrae), Ноэль Тремблэ (Muna), Тим Расс (Ezekiel Roake), Лучана Карро (Josie Parks), Джейсон Мэттью Смит (Burt Becks)
Описание:
Дорога в ад вымощена благими намерениями.
Рейтинг:

rating

Качество: WEB-DLRip
Формат: AVI
Видео: XviD, 720x400 (16:9), 1634 kbps, 23,976 fps, 0,237 bpp
Аудио: AC3 / 2.0 / 48 kHz / 192 kbps /

Есть реклама казино!
General
Complete name : D:\Six.Gun.Savior.2016.P.WEB_DLRip.14OOMB_KOSHARA.avi
Format : AVI
Format/Info : Audio Video Interleave
File size : 1.37 GiB
Duration : 1 h 42 min
Overall bit rate : 1 911 kb/s
Writing application : VirtualDubMod 1.5.10.2 (build 2540/release)
Writing library : VirtualDubMod build 2540/release

Video
ID : 0
Format : MPEG-4 Visual
Format profile : Advanced Simple@L5
Format settings, BVOP : 2
Format settings, QPel : No
Format settings, GMC : No warppoints
Format settings, Matrix : Default (MPEG)
Codec ID : XVID
Codec ID/Hint : XviD
Duration : 1 h 42 min
Bit rate : 1 635 kb/s
Width : 720 pixels
Height : 400 pixels
Display aspect ratio : 16:9
Frame rate : 23.976 (24000/1001) FPS
Color space : YUV
Chroma subsampling : 4:2:0
Bit depth : 8 bits
Scan type : Progressive
Compression mode : Lossy
Bits/(Pixel*Frame) : 0.237
Stream size : 1.17 GiB (86%)
Writing library : XviD 1.2.1 (UTC 2008-12-04)

Audio
ID : 1
Format : AC-3
Format/Info : Audio Coding 3
Mode extension : CM (complete main)
Format settings, Endianness : Big
Codec ID : 2000
Duration : 1 h 42 min
Bit rate mode : Constant
Bit rate : 192 kb/s
Channel(s) : 2 channels
Channel positions : Front: L R
Sampling rate : 48.0 kHz
Frame rate : 31.250 FPS (1536 spf)
Compression mode : Lossy
Stream size : 141 MiB (10%)
Alignment : Split accross interleaves
Скриншоты
piratbit.org



Скачать Шестизарядный спаситель через торрент http://i5.imageban.ru/out/2017/02/27/f037347db9b34b82a9d2f1cd65a61e7e.jpg Скачать фильм Шестизарядный спаситель через торрент бесплантно в хорошем качестве Описание: Дорога в ад вымощена благими ... 9.3 10 14
Торрент: Зарегистрирован [2017-02-27 17:04] · скачан: 311 раз
Статус: T временная
Размер: 1.37 GB
Как cкачать? Как скачать Шестизарядный спаситель через торрент | UTorrent



Последний раз редактировалось: Flash77 (2017-02-27 21:07), всего редактировалось 2 раз(а)

28-11-2019 20:33  

Отключить всю рекламу на сайте

27-02-2017 17:10 Шестизарядный спаситель Скачать торрент  

о Эрик Робертс,спасиб заценимpiratbit.org



27-02-2017 17:18 Шестизарядный спаситель Скачать торрент  

очередной мало бюджетный трэшняк?) или стоит внимания?piratbit.org



27-02-2017 20:33 Шестизарядный спаситель Скачать торрент  

добавьте еще один скриншот и перевод укажите верныйpiratbit.org



27-02-2017 20:41 Шестизарядный спаситель Скачать торрент  

ruslanishe, добавил скриншот, перевод исправил.piratbit.org



27-02-2017 20:55 Шестизарядный спаситель Скачать торрент  

Flash77 писал(а):

ruslanishe, добавил скриншот, перевод исправил.

Отлично.

Реклама в новых релизах Кино? piratbit.org



27-02-2017 21:02 Шестизарядный спаситель Скачать торрент  

сэмпл добавтеpiratbit.org



27-02-2017 21:08 Шестизарядный спаситель Скачать торрент  

ruslanishe, добавилpiratbit.org



27-02-2017 21:18 Шестизарядный спаситель Скачать торрент  

Flash77 писал(а):

ruslanishe, добавил

окpiratbit.org



28-02-2017 02:12 Шестизарядный спаситель Скачать торрент  

Добавьте скриншот, укажите перевод... Это прекрасно все конечно, но нельзя бы хоть краткое описание фильма выложить. О чем, про что?piratbit.org



28-02-2017 04:29 Шестизарядный спаситель Скачать торрент  

Слишком много воды в описании! piratbit.org



28-02-2017 09:49 Шестизарядный спаситель Скачать торрент  

Evgeniy 23 писал(а):

Добавьте скриншот, укажите перевод... Это прекрасно все конечно, но нельзя бы хоть краткое описание фильма выложить. О чем, про что?

так везде такое описание даже на кинопоиске. а лучше нет не где.piratbit.org



    Дорогой пользователь! Огромная просьба, поблагодарите релизера, оцените раздачу и оставьте свои комментарий, если Вы скачали Шестизарядный спаситель через торрент бесплатно! Внесите свою лепту в развитие PiratBit!
    Комментировать посты могут только пользователи прошедшие не сложную регистрацию
    Показать сообщения:    

    Шестизарядный спаситель через торрент
    Скачать бесплатно Шестизарядный спаситель
    Шестизарядный спаситель скачать торрент
    Шестизарядный спаситель смотреть онлайн
    Cкачать фильм Шестизарядный спаситель бесплатно
    Шестизарядный спаситель скачать торрент в хорошем качестве
    Шестизарядный спаситель смотреть онлайн бесплатно в хорошем качестве


    Вы не можете начинать темы
    Вы не можете отвечать на сообщения
    Вы не можете редактировать свои сообщения
    Вы не можете удалять свои сообщения
    Вы не можете голосовать в опросах
    Вы не можете прикреплять файлы к сообщениям
    Вы можете скачивать файлы