2 сезон

iTunes

MVO

1

2 сезон

iTunes

iTunes

1 сезон

RePack

30

Новинка

ВАЖНО

ИГРА 18+

pack

RePack

MK11
pack

Легкие деньги

RePack

jed

RePack

fifa19

RePack

RDR2

RePack

NEED FOR SPEED™ PAYBACK

4 сезон

9 сезон

Бесстыжие 9 сезон

Все сериалы

все сериалы на PB.wtf

RePack

FAR CRY 5

Anonymous, добрый вечер, мы не успеваем собрать деньги на оплату серверов за декабрь и январь, помогите нам пожалуйста в это трудное время. В качестве благодарности мы отключим Вам всю рекламу на сайте (укажите свой ник в строку Ваше имя)!

×
  
Magnet ссылка

Реальность или фантастика? Король Артур / Is it Real? King Arthur [2007 г., Документальный, научно-популярный, мистика, паранормальный, HDTVRip, Дубляж] от R.G.Resident piratbit.org

Скачать  

28-02-2017 14:52 Реальность или фантастика? Король Артур Скачать торрент  

Реальность или фантастика? Король Артур / Is it Real? King Arthur
Год выпуска: 2007
Страна: США, National Geographic Channels
Жанр: Документальный, научно-популярный, мистика, паранормальный
Продолжительность: 00:46:59
Перевод: Дубляж

Описание: Легенда утверждает, что король Артур был благородным воином, давшим свободу народу Англии с помощью Мерлина. Но есть ли в этом хоть какая-то правда?

Качество: HDTVRip [Рип с HDTV 1080i]
Формат: AVI
Видео кодек: XviD
Аудио кодек: AC3
Видео: 720x400 (1.80:1), 25 fps, XviD build 73 ~1436 kbps avg, 0.20 bit/pixel
Аудио#1: 48 kHz, AC3 Dolby Digital, 2/0 (L,R) ch, ~192.00 kbps avg
Релиз от: ruslanishe

General
Complete name : Realnost.ili.fantastika.Korol.Artur.XviD.2007.HDTVRip.R.G.Resident.avi
Format : AVI
Format/Info : Audio Video Interleave
File size : 550 MiB
Duration : 46mn 58s
Overall bit rate : 1 637 Kbps
Director : ruslanishe
Writing application : VirtualDubMod 1.5.10.3 | www.virtualdub-fr.org || (build 2550/release)
Copyright : R.G.Resident

Video
ID : 0
Format : MPEG-4 Visual
Format profile : Advanced Simple@L5
Format settings, BVOP : 2
Format settings, QPel : No
Format settings, GMC : No warppoints
Format settings, Matrix : Custom
Codec ID : XVID
Codec ID/Hint : XviD
Duration : 46mn 58s
Bit rate : 1 436 Kbps
Width : 720 pixels
Height : 400 pixels
Display aspect ratio : 16:9
Frame rate : 25.000 fps
Color space : YUV
Chroma subsampling : 4:2:0
Bit depth : 8 bits
Scan type : Progressive
Compression mode : Lossy
Bits/(Pixel*Frame) : 0.199
Stream size : 482 MiB (88%)
Writing library : XviD 73

Audio
ID : 1
Format : AC-3
Format/Info : Audio Coding 3
Mode extension : CM (complete main)
Format settings, Endianness : Big
Codec ID : 2000
Duration : 46mn 58s
Bit rate mode : Constant
Bit rate : 192 Kbps
Channel(s) : 2 channels
Channel positions : Front: L R
Sampling rate : 48.0 KHz
Bit depth : 16 bits
Compression mode : Lossy
Stream size : 64.5 MiB (12%)
Alignment : Split accross interleaves
Interleave, duration : 40 ms (1.00 video frame)
Interleave, preload duration : 500 ms

piratbit.org



Скачать
Чтобы иметь возможность скачивать с Торрент Трекера, нужно Зарегистрироваться

Как скачивать  ·  Рейтинг и ограничения

28-11-2019 20:33  

Отключить всю рекламу на сайте

    Дорогой пользователь! Огромная просьба, поблагодарите релизера, оцените раздачу и оставьте свои комментарий, если Вы скачали Реальность или фантастика? Король Артур через торрент бесплатно! Внесите свою лепту в развитие PiratBit!
    Комментировать посты могут только пользователи прошедшие не сложную регистрацию
    Показать сообщения:    

    Реальность или фантастика? Король Артур через торрент
    Скачать бесплатно Реальность или фантастика? Король Артур
    Реальность или фантастика? Король Артур скачать торрент
    Реальность или фантастика? Король Артур смотреть онлайн
    Cкачать фильм Реальность или фантастика? Король Артур бесплатно
    Реальность или фантастика? Король Артур скачать торрент в хорошем качестве
    Реальность или фантастика? Король Артур смотреть онлайн бесплатно в хорошем качестве


    Вы не можете начинать темы
    Вы не можете отвечать на сообщения
    Вы не можете редактировать свои сообщения
    Вы не можете удалять свои сообщения
    Вы не можете голосовать в опросах
    Вы не можете прикреплять файлы к сообщениям
    Вы не можете скачивать файлы