1 сезон

3 сезон

iTunes

1

iTunes

DUB Netflix

iTunes

13

1 сезон

RePack

30

Deluxe

pack

Легкие деньги

ВАЖНО

ИГРА 18+

pack

RePack

MK11

RePack

jed

RePack

fifa19

RePack

RDR2

RePack

NEED FOR SPEED™ PAYBACK

4 сезон

9 сезон

Бесстыжие 9 сезон

Все сериалы

все сериалы на PB.wtf

RePack

FAR CRY 5

Anonymous, добрый день, мы не успеваем до 1 числа собрать деньги на оплату серверов, помогите нам пожалуйста в это трудное время. В качестве благодарности мы отключим Вам всю рекламу на сайте (укажите свой ник в строку Ваше имя)!

×
  
Magnet ссылка

Призрачная красота / Collateral Beauty (Дэвид Фрэнкел) [2016, драма, BDRip-AVC] Дубляж - [Лицензия] от ExKinoRay piratbit.org

Призрачная красота через торрент piratbit.org

Размер: 1.96 GB | Добавлен: 4 года 2 мес. назад | Торрент скачан:890 раз
Скачать  

02-03-2017 13:20 Призрачная красота Скачать торрент  

Информация о фильме
Название: Призрачная красота
Оригинальное название: Collateral Beauty
Год выпуска: 2016
Страна: США
Жанр: Драма
Студия: Anonymous Content, Likely Story, Overbrook Entertainment
Продолжительность: 01:36:39
Перевод: Дублированный | Лицензия
Субтитры: Русские (forced, full), украинские (forced), английские (full, SDH, SDH Colored)
Режиссер: Дэвид Фрэнкел
В ролях: Уилл Смит, Эдвард Нортон, Кейт Уинслет, Майкл Пенья, Хелен Миррен, Наоми Харрис, Кира Найтли, Джейкоб Латимор, Энн Дауд, Лиза Колон-Зайас

Описание: Главный герой работает в рекламном агентстве Нью-Йорка. Не так давно в его личной жизни произошла трагедия, ввергнувшая его в тяжелейшую депрессию. Коллеги пытаются помочь и разрабатывают нетрадиционный план по возвращению друга обратно на твёрдую почву, однако план срабатывает неожиданным образом.

rating
Файл
Качество: BDRip (AVC)
Видео: MPEG-4 AVC, 1024x426 (2.40:1), 23.976 fps, ~1820 kbps avg, 0.174 bit/pixel
Аудио №1: русский / AC3 / 5.1 / 48 kHz / 448 kbps /
Аудио №2: украинский / AC3 / 2.0 / 48 kHz / 192 kbps /
Аудио №3: английский / AC3 / 5.1 / 48 kHz / 448 kbps /

Релиз от:

Автор релиза:
General
Unique ID : 206720507693879100519303701708174007616 (0x9B84EBED3BF7C8E4B44B41541AA01D40)
Complete name : D:\Collateral.Beauty.2016.D.BDRip.AVC.ExKinoRay.mkv
Format : Matroska
Format version : Version 2
File size : 1.96 GiB
Duration : 1 h 36 min
Overall bit rate : 2 910 kb/s
Movie name : Collateral Beauty 2016 from ExKinoRay
Encoded date : UTC 2017-03-29 21:37:38
Writing application : mkvmerge v5.8.0 ('No Sleep / Pillow') built on Sep 2 2012 15:37:04
Writing library : libebml v1.2.3 + libmatroska v1.3.0

Video
ID : 1
Format : AVC
Format/Info : Advanced Video Codec
Format profile : High@L4.1
Format settings, CABAC : Yes
Format settings, ReFrames : 12 frames
Codec ID : V_MPEG4/ISO/AVC
Duration : 1 h 36 min
Bit rate : 1 820 kb/s
Width : 1 024 pixels
Height : 426 pixels
Display aspect ratio : 2.40:1
Frame rate mode : Constant
Frame rate : 23.976 (24000/1001) FPS
Color space : YUV
Chroma subsampling : 4:2:0
Bit depth : 8 bits
Scan type : Progressive
Bits/(Pixel*Frame) : 0.174
Stream size : 1.19 GiB (61%)
Title : Enigma
Writing library : x264 core 144 r2525 40bb568
Encoding settings : cabac=1 / ref=12 / deblock=1:-2:-2 / analyse=0x3:0x113 / me=umh / subme=10 / psy=1 / psy_rd=1.01:0.06 / mixed_ref=1 / me_range=32 / chroma_me=1 / trellis=2 / 8x8dct=1 / cqm=0 / deadzone=21,11 / fast_pskip=1 / chroma_qp_offset=-3 / threads=12 / lookahead_threads=3 / sliced_threads=0 / nr=0 / decimate=1 / interlaced=0 / bluray_compat=0 / constrained_intra=0 / bframes=10 / b_pyramid=2 / b_adapt=2 / b_bias=0 / direct=3 / weightb=1 / open_gop=0 / weightp=2 / keyint=240 / keyint_min=23 / scenecut=40 / intra_refresh=0 / rc_lookahead=40 / rc=2pass / mbtree=0 / bitrate=1820 / ratetol=1.0 / qcomp=0.60 / qpmin=0 / qpmax=51 / qpstep=4 / cplxblur=20.0 / qblur=0.5 / vbv_maxrate=50000 / vbv_bufsize=62500 / nal_hrd=none / filler=0 / ip_ratio=1.40 / pb_ratio=1.30 / aq=1:1.00
Language : English
Default : Yes
Forced : No
Color range : Limited
Color primaries : BT.709
Transfer characteristics : BT.709
Matrix coefficients : BT.709

Audio #1
ID : 2
Format : AC-3
Format/Info : Audio Coding 3
Mode extension : CM (complete main)
Format settings, Endianness : Big
Codec ID : A_AC3
Duration : 1 h 36 min
Bit rate mode : Constant
Bit rate : 448 kb/s
Channel(s) : 6 channels
Channel positions : Front: L C R, Side: L R, LFE
Sampling rate : 48.0 kHz
Frame rate : 31.250 FPS (1536 spf)
Compression mode : Lossy
Stream size : 310 MiB (15%)
Title : Dub (Лицензия)
Language : Russian
Default : Yes
Forced : No

Audio #2
ID : 3
Format : AC-3
Format/Info : Audio Coding 3
Mode extension : CM (complete main)
Format settings, Endianness : Big
Codec ID : A_AC3
Duration : 1 h 36 min
Bit rate mode : Constant
Bit rate : 192 kb/s
Channel(s) : 2 channels
Channel positions : Front: L R
Sampling rate : 48.0 kHz
Frame rate : 31.250 FPS (1536 spf)
Compression mode : Lossy
Stream size : 133 MiB (7%)
Title : Dub
Language : Ukrainian
Default : No
Forced : No

Audio #3
ID : 4
Format : AC-3
Format/Info : Audio Coding 3
Mode extension : CM (complete main)
Format settings, Endianness : Big
Codec ID : A_AC3
Duration : 1 h 36 min
Bit rate mode : Constant
Bit rate : 448 kb/s
Channel(s) : 6 channels
Channel positions : Front: L C R, Side: L R, LFE
Sampling rate : 48.0 kHz
Frame rate : 31.250 FPS (1536 spf)
Compression mode : Lossy
Stream size : 310 MiB (15%)
Language : English
Default : No
Forced : No

Text #1
ID : 5
Format : UTF-8
Codec ID : S_TEXT/UTF8
Codec ID/Info : UTF-8 Plain Text
Title : Forced
Language : Russian
Default : Yes
Forced : No

Text #2
ID : 6
Format : UTF-8
Codec ID : S_TEXT/UTF8
Codec ID/Info : UTF-8 Plain Text
Title : Full
Language : Russian
Default : No
Forced : No

Text #3
ID : 7
Format : UTF-8
Codec ID : S_TEXT/UTF8
Codec ID/Info : UTF-8 Plain Text
Title : Forced
Language : Ukrainian
Default : No
Forced : No

Text #4
ID : 8
Format : UTF-8
Codec ID : S_TEXT/UTF8
Codec ID/Info : UTF-8 Plain Text
Title : Full
Language : English
Default : No
Forced : No

Text #5
ID : 9
Format : UTF-8
Codec ID : S_TEXT/UTF8
Codec ID/Info : UTF-8 Plain Text
Title : SDH
Language : English
Default : No
Forced : No

Text #6
ID : 10
Format : UTF-8
Codec ID : S_TEXT/UTF8
Codec ID/Info : UTF-8 Plain Text
Title : SDH (Colored)
Language : English
Default : No
Forced : No

Menu
00:00:00.000 : en:00:00:00.000
00:10:20.078 : en:00:10:20.078
00:21:30.414 : en:00:21:30.414
00:33:57.118 : en:00:33:57.118
00:42:43.311 : en:00:42:43.311
00:53:07.184 : en:00:53:07.184
01:01:04.327 : en:01:01:04.327
01:08:55.048 : en:01:08:55.048
01:22:15.931 : en:01:22:15.931
01:33:09.626 : en:01:33:09.626
piratbit.org



Скачать Призрачная красота через торрент http://s018.radikal.ru/i502/1703/e3/01f2193848b8.jpg Скачать фильм Призрачная красота через торрент бесплантно в хорошем качестве Описание: Главный герой работает в рекламном агентстве Нью-Йорка. Не так давно в его личной жизни произошла трагедия, ввергнувшая его в ... 9.7 10 44
× Info от релизера! Замена на лицензию
Info! Золотая раздача, скачанное не засчитывается.
Торрент: Зарегистрирован [2017-03-29 22:37] · скачан: 890 раз
Статус: √ проверено
Размер: 1.96 GB
Как cкачать? Как скачать Призрачная красота через торрент | UTorrent

% Раздел Тема Автор DL S | L
Фильмы (Blu-ray, BD-Remux, HDDVD) [ 26.11 GB ] Призрачная красота / Collateral Beauty [2016 BDRemux 1080p] от ExKinoRay / / Russian Mafia Скачать
1 | 0


Последний раз редактировалось: Enigma2010 (2017-03-29 22:38), всего редактировалось 3 раз(а)

28-11-2019 20:33  

Отключить всю рекламу на сайте

03-03-2017 14:43 Призрачная красота Скачать торрент  

Один из лучших фильмов с Уилл Смитом...piratbit.org



07-03-2017 19:37 Призрачная красота Скачать торрент  

Согласенpiratbit.org



30-03-2017 20:48 Призрачная красота Скачать торрент  

Просто хороший фильм.piratbit.org



    Дорогой пользователь! Огромная просьба, поблагодарите релизера, оцените раздачу и оставьте свои комментарий, если Вы скачали Призрачная красота через торрент бесплатно! Внесите свою лепту в развитие PiratBit!
    Комментировать посты могут только пользователи прошедшие не сложную регистрацию
    Показать сообщения:    

    Призрачная красота через торрент
    Скачать бесплатно Призрачная красота
    Призрачная красота скачать торрент
    Призрачная красота смотреть онлайн
    Cкачать фильм Призрачная красота бесплатно
    Призрачная красота скачать торрент в хорошем качестве
    Призрачная красота смотреть онлайн бесплатно в хорошем качестве


    Вы не можете начинать темы
    Вы не можете отвечать на сообщения
    Вы не можете редактировать свои сообщения
    Вы не можете удалять свои сообщения
    Вы не можете голосовать в опросах
    Вы не можете прикреплять файлы к сообщениям
    Вы можете скачивать файлы