1 сезон

3 сезон

iTunes

1

iTunes

DUB Netflix

iTunes

13

1 сезон

RePack

30

Deluxe

pack

Легкие деньги

ВАЖНО

ИГРА 18+

pack

RePack

MK11

RePack

jed

RePack

fifa19

RePack

RDR2

RePack

NEED FOR SPEED™ PAYBACK

4 сезон

9 сезон

Бесстыжие 9 сезон

Все сериалы

все сериалы на PB.wtf

RePack

FAR CRY 5

Anonymous, добрый день, мы не успеваем до 1 числа собрать деньги на оплату серверов, помогите нам пожалуйста в это трудное время. В качестве благодарности мы отключим Вам всю рекламу на сайте (укажите свой ник в строку Ваше имя)!

×
  
Magnet ссылка

Прибытие / Arrival (Дени Вильнёв) [2016, фантастика, триллер, драма, BDRip-AVC] Дубляж - [Лицензия], AVO (Матвеев) от ExKinoRay piratbit.org

Прибытие через торрент piratbit.org

Размер: 2.28 GB | Добавлен: 4 года 3 мес. назад | Торрент скачан:173 раза
Скачать  

03-03-2017 19:43 Прибытие Скачать торрент  

Информация о фильме
Название: Прибытие
Оригинальное название: Arrival
Год выхода: 2016
Страна: США, 21 Laps Entertainment, FilmNation Entertainment, Lava Bear Films
Жанр: фантастика, триллер, драма, детектив, экранизация
Продолжительность: 01:56:23
Перевод: Дубляж [лицензия], авторский (одноголосый) (Матвеев)
Субтитры: Русские, английские

Перевод А.Матвеева доступен благодаря вложениям участников Переулка Переводмана: shagrath88, Старый, Shrooms, Wa1ker, kidman644, Аноним, Ottotchiev, dikii, Avatar-Lion, spiralarch, СерП, none1
Режиссер: Дени Вильнёв
В ролях: Эми Адамс, Джереми Реннер, Майкл Стулбарг, Форест Уитакер, Сангита Патель, Марк О’Брайэн, Эбигейл Пнёвски, Ци Ма, Натали Тибо, Рут Чианг

Описание: В разных уголках планеты внезапно появляются неопознанные летающие объекты. Они мирно зависают над поверхностью и всем своим видом демонстрируют полное равнодушие к населению. Цели их визита неизвестны, язык не узнаваем и вообще никто ничего не понимает. Стремясь установить с инопланетянами контакт, и обойтись без танковых клиньев, правительство привлекает к этому крайне запутанному делу лингвиста Луизу Бэнкс и физика Яна Доннели. Им необходимо понять замыслы пришельцев до того, пока кто-нибудь из военных на почве нервного срыва не решится превратить весь мир в могильник с ядерными отходами. В основе фильма лежит повесть Теда Чана «История твоей жизни» (Story of Your Life, 1998)..

rating
Файл
Качество: BDRip (AVC)
Видео: MPEG-4 AVC, 1024x428 (2.40:1), 23.976 fps, ~1460 kbps avg, 0.1739 bit/pixel
Аудио №1: русский / AC3 / 5.1 / 48 kHz / 448 kbps / - Дубляж
Аудио №2: русский / AC3 / 5.1 / 48 kHz / 448 kbps / - Матвеев
Аудио №3: английский / AC3 / 5.1 / 48 kHz / 448 kbps /
General
Unique ID : 240949217772474302138509721236729365694 (0xB54521A0B56827D99893CF52786204BE)
Complete name : D:Arrival.2016.2xRus.BDRip.AVC.ExKinoRay.mkv
Format : Matroska
Format version : Version 2
File size : 2.28 GiB
Duration : 1 h 56 min
Overall bit rate : 2 805 kb/s
Movie name : Arrival (2016) from ExKinoRay
Encoded date : UTC 2017-03-03 18:54:20
Writing application : mkvmerge v5.8.0 ('No Sleep / Pillow') built on Sep 2 2012 15:37:04
Writing library : libebml v1.2.3 + libmatroska v1.3.0

Video
ID : 1
Format : AVC
Format/Info : Advanced Video Codec
Format profile : High@L4.1
Format settings, CABAC : Yes
Format settings, ReFrames : 12 frames
Codec ID : V_MPEG4/ISO/AVC
Duration : 1 h 56 min
Bit rate : 1 460 kb/s
Width : 1 024 pixels
Height : 428 pixels
Display aspect ratio : 2.40:1
Frame rate mode : Constant
Frame rate : 23.976 (24000/1001) FPS
Color space : YUV
Chroma subsampling : 4:2:0
Bit depth : 8 bits
Scan type : Progressive
Bits/(Pixel*Frame) : 0.139
Stream size : 1.14 GiB (50%)
Title : Enigma
Writing library : x264 core 144 r2525 40bb568
Encoding settings : cabac=1 / ref=12 / deblock=1:-2:-2 / analyse=0x3:0x113 / me=umh / subme=10 / psy=1 / psy_rd=1.00:0.03 / mixed_ref=1 / me_range=32 / chroma_me=1 / trellis=2 / 8x8dct=1 / cqm=0 / deadzone=21,11 / fast_pskip=1 / chroma_qp_offset=-3 / threads=12 / lookahead_threads=3 / sliced_threads=0 / nr=0 / decimate=1 / interlaced=0 / bluray_compat=0 / constrained_intra=0 / bframes=14 / b_pyramid=2 / b_adapt=2 / b_bias=0 / direct=3 / weightb=1 / open_gop=0 / weightp=2 / keyint=240 / keyint_min=23 / scenecut=40 / intra_refresh=0 / rc_lookahead=40 / rc=2pass / mbtree=0 / bitrate=1460 / ratetol=1.0 / qcomp=0.60 / qpmin=0 / qpmax=51 / qpstep=4 / cplxblur=20.0 / qblur=0.5 / vbv_maxrate=50000 / vbv_bufsize=62500 / nal_hrd=none / filler=0 / ip_ratio=1.40 / pb_ratio=1.30 / aq=3:0.80
Language : English
Default : Yes
Forced : No
Color range : Limited
Color primaries : BT.709
Transfer characteristics : BT.709
Matrix coefficients : BT.709

Audio #1
ID : 2
Format : AC-3
Format/Info : Audio Coding 3
Mode extension : CM (complete main)
Format settings, Endianness : Big
Codec ID : A_AC3
Duration : 1 h 56 min
Bit rate mode : Constant
Bit rate : 448 kb/s
Channel(s) : 6 channels
Channel positions : Front: L C R, Side: L R, LFE
Sampling rate : 48.0 kHz
Frame rate : 31.250 FPS (1536 spf)
Bit depth : 16 bits
Compression mode : Lossy
Stream size : 373 MiB (16%)
Title : Dub (BD EUR)
Default : Yes
Forced : No

Audio #2
ID : 3
Format : AC-3
Format/Info : Audio Coding 3
Mode extension : CM (complete main)
Format settings, Endianness : Big
Codec ID : A_AC3
Duration : 1 h 56 min
Bit rate mode : Constant
Bit rate : 448 kb/s
Channel(s) : 6 channels
Channel positions : Front: L C R, Side: L R, LFE
Sampling rate : 48.0 kHz
Frame rate : 31.250 FPS (1536 spf)
Bit depth : 16 bits
Compression mode : Lossy
Stream size : 373 MiB (16%)
Title : Matveev
Language : Russian
Default : No
Forced : No

Audio #3
ID : 4
Format : AC-3
Format/Info : Audio Coding 3
Mode extension : CM (complete main)
Format settings, Endianness : Big
Codec ID : A_AC3
Duration : 1 h 56 min
Bit rate mode : Constant
Bit rate : 448 kb/s
Channel(s) : 6 channels
Channel positions : Front: L C R, Side: L R, LFE
Sampling rate : 48.0 kHz
Frame rate : 31.250 FPS (1536 spf)
Bit depth : 16 bits
Compression mode : Lossy
Stream size : 373 MiB (16%)
Language : English
Default : No
Forced : No

Text #1
ID : 5
Format : UTF-8
Codec ID : S_TEXT/UTF8
Codec ID/Info : UTF-8 Plain Text
Title : Forced
Language : Russian
Default : Yes
Forced : No

Text #2
ID : 6
Format : UTF-8
Codec ID : S_TEXT/UTF8
Codec ID/Info : UTF-8 Plain Text
Title : Full
Language : Russian
Default : No
Forced : No

Text #3
ID : 7
Format : UTF-8
Codec ID : S_TEXT/UTF8
Codec ID/Info : UTF-8 Plain Text
Title : Full
Language : English
Default : No
Forced : No

Text #4
ID : 8
Format : UTF-8
Codec ID : S_TEXT/UTF8
Codec ID/Info : UTF-8 Plain Text
Title : SDH
Language : English
Default : No
Forced : No

Text #5
ID : 9
Format : UTF-8
Codec ID : S_TEXT/UTF8
Codec ID/Info : UTF-8 Plain Text
Title : SDH-Colored
Language : English
Default : No
Forced : No

Menu
00:00:00.000 : en:00:00:00.000
00:09:49.923 : en:00:09:49.923
00:17:33.552 : en:00:17:33.552
00:23:28.282 : en:00:23:28.282
00:33:54.157 : en:00:33:54.157
00:41:01.709 : en:00:41:01.709
00:52:26.101 : en:00:52:26.101
00:57:34.576 : en:00:57:34.576
01:03:06.449 : en:01:03:06.449
01:09:29.207 : en:01:09:29.207
01:16:09.398 : en:01:16:09.398
01:25:21.825 : en:01:25:21.825
01:35:37.065 : en:01:35:37.065
01:45:26.695 : en:01:45:26.695
Релиз от:

Автор релиза: piratbit.org



Скачать Прибытие через торрент http://i89.fastpic.ru/big/2017/0123/5d/496fc20cc5d8ac75fc1f39ab9185145d.jpg Скачать фильм Прибытие через торрент бесплантно в хорошем качестве Описание: В разных уголках планеты внезапно появляются неопознанные летающие объекты. Они мирно зависают над поверхностью и всем своим ... 10 10 4
Info! Золотая раздача, скачанное не засчитывается.
Торрент: Зарегистрирован [2017-03-03 19:43] · скачан: 173 раз
Статус: √ проверено
Размер: 2.28 GB
Как cкачать? Как скачать Прибытие через торрент | UTorrent

28-11-2019 20:33  

Отключить всю рекламу на сайте

04-03-2017 05:05 Прибытие Скачать торрент  

А как же ты Диму сюда забыла?piratbit.org



04-03-2017 06:15 Прибытие Скачать торрент  

potroks писал(а):

А как же ты Диму сюда забыла?

Я его удалила. Достаточно Матвеева.piratbit.org



04-03-2017 09:52 Прибытие Скачать торрент  

Enigma2010 писал(а):

potroks писал(а):

А как же ты Диму сюда забыла?

Я его удалила. Достаточно Матвеева.

Напрасно. Если не в размере, то можно было оставить и Есарева.piratbit.org



    Дорогой пользователь! Огромная просьба, поблагодарите релизера, оцените раздачу и оставьте свои комментарий, если Вы скачали Прибытие через торрент бесплатно! Внесите свою лепту в развитие PiratBit!
    Комментировать посты могут только пользователи прошедшие не сложную регистрацию
    Показать сообщения:    

    Прибытие через торрент
    Скачать бесплатно Прибытие
    Прибытие скачать торрент
    Прибытие смотреть онлайн
    Cкачать фильм Прибытие бесплатно
    Прибытие скачать торрент в хорошем качестве
    Прибытие смотреть онлайн бесплатно в хорошем качестве


    Вы не можете начинать темы
    Вы не можете отвечать на сообщения
    Вы не можете редактировать свои сообщения
    Вы не можете удалять свои сообщения
    Вы не можете голосовать в опросах
    Вы не можете прикреплять файлы к сообщениям
    Вы можете скачивать файлы