Доктор Стрэндж

Лицензия

Добыча

MVO

Дом дракона

1 сезон

Тор

Лицензия

Мэверик

Лицензия

Там, где раки поют

MVO

Властелин колец

1 сезон

Ultimate

pack

Рекомендуем

30

Repack

ВАЖНО

ВАЖНО

Ghostwire

RePack

jed

RePack

nioh2

RePack

RDR2

RePack

NEED FOR SPEED™ PAYBACK

RePack

скачать торрент

Кинопоиск HD

Острые козырьки 6 сезон

6 сезон

FAR CRY 6

RePack

скачать торрент

Лицензия

скачать торрент

MVO

1

1 сезон

скачать торрент

1 сезон

скачать торрент

Лицензия

  

Белая акация (Георгий Натансон) [1957, СССР, комедия, мюзикл, DVDRip от AVP Studio]

Белая акация через торрент piratbit.org

Размер: 746 MB | Добавлен: 5 лет 7 мес. назад | Торрент скачан:7 раз
Смотреть онлайн | Скачать   

05-03-2017 09:33 Белая акация Скачать торрент  

Белая акация
Страна: СССР
Производство: Молдова-филм по заказу Центральной студии телевидения

Жанр: комедия, мюзикл
Год выпуска: 1957
Продолжительность: 01:25:02

Перевод: Не требуется
Cубтитры: нет
Оригинальная аудиодорожка: русский

Режиссер: Георгий Натансон

В ролях:
Идалия Иванова, Александр Стародуб, Евгения Дембская, Михаил Водяной, Николай Кочкин, Валентина Франчук, Муза Крепкогорская, Михаил Дашевский, Шева Фингерова, Олег Шаповалов, Борис Никитин, А. Латров, Виктор Алоин, Н. Сивченко...
Об актёрах подробней

Описание:
По одноименной оперетте И. Дунаевского.
Фильм снят по спектаклю Одесского театра музыкальной комедии (главный режиссер театра и постановщик спектакля - И. Гриншпун).
Китобойная флотилия уходит в далёкое плавание на промысел, а дома моряков всегда ждут родные, любимые, друзья. Вот и теперь они провожают китобоев. Капитан флотилии, красавец Костя Куприянов, оставляет на берегу невесту Ларису, девицу довольно эффектную внешне, но пустую, хитрую и пошлую по существу. У неё есть другой вздыхатель – Яшка-Буксир (Михаил Водяной), Яшка-доставала, агент по снабжению дефицитным барахлом, обаятельный одесский жулик. А по Косте тайно вздыхает совсем молоденькая девчонка, которую до сих пор и взрослой то не считали, «морская дочка» Тоня Чумакова. Вот она по-настоящему любит героя-моряка, любит настолько бескорыстно и глубоко, что решается на святой обман – посылает Косте на флагманский корабль, в беснующийся от шторма океан радиограмму от имени Ларисы и все свои чувства вкладывает в слова любви, подписывая их чужим именем. Ну а Костя, узнав, кто был истинным автором радиограммы, которая так взволновала его, конечно, сумел сделать правильный выбор, ко всеобщему удовольствию.

Источник: DVD5 R5
Качество видео: DVDRip
Формат видео: AVI

Видео: 640x480 (4:3), 25 fps, XviD ~ 1085 kbps avg, 0.141 bit/pixel
Аудио: 48 kHz, MP3 2.0, 128 kbps

Раздача от:
Общее
Полное имя : Belaya.akaciya.1957.DVDRip-745_[New-team]_by_AVP_Studio.avi
Формат : AVI
Формат/Информация : Audio Video Interleave
Размер файла : 746 Мбайт
Продолжительность : 1 ч. 25 м.
Общий поток : 1226 Кбит/сек

Видео
Идентификатор : 0
Формат : MPEG-4 Visual
Профиль формата : Advanced Simple@L5
Параметр BVOP формата : 1
Параметр QPel формата : Нет
Параметр GMC формата : Без точки перехода
Параметр матрицы формата : Выборочная
Идентификатор кодека : XVID
Идентификатор кодека/Подсказка : XviD
Продолжительность : 1 ч. 25 м.
Битрейт : 1085 Кбит/сек
Ширина : 640 пикселей
Высота : 480 пикселей
Соотношение сторон : 4:3
Частота кадров : 25,000 кадров/сек
Цветовое пространство : YUV
Субдискретизация насыщенности : 4:2:0
Битовая глубина : 8 бит
Тип развёртки : Прогрессивная
Метод сжатия : С потерями
Бит/(Пиксели*Кадры) : 0.141
Размер потока : 660 Мбайт (88%)
Библиотека кодирования : XviD 73

Аудио
Идентификатор : 1
Формат : MPEG Audio
Версия формата : Version 1
Профиль формата : Layer 3
Идентификатор кодека : 55
Идентификатор кодека/Подсказка : MP3
Продолжительность : 1 ч. 25 м.
Вид битрейта : Постоянный
Битрейт : 128 Кбит/сек
Каналы : 2 канала
Частота : 48,0 КГц
Метод сжатия : С потерями
Размер потока : 77,9 Мбайт (10%)
Выравнивание : Соединение по промежуткам
Продолжительность промежутка : 24 мс. (0,60 видеокадр)



Скачать Белая акация через торрент http://s019.radikal.ru/i644/1703/35/b53464253c0c.png Скачать, смотреть онлайн Белая акация бесплантно в хорошем качестве Описание:По одноименной оперетте И. Дунаевского.Фильм снят по спектаклю Одесского театра музыкальной комедии (главный режиссер театра и ... 5 10 1
Info! Золотая раздача, скачанное не засчитывается.
Торрент: Зарегистрирован [2017-03-05 09:33] · скачан: 7 раз
Статус: √ проверено
Размер: 746 MB
Как cкачать? Как скачать Белая акация через торрент | UTorrent

% Раздел Тема Автор DL S | L
Кино СССР [ 1.46 GB ] Белая акация | | DVDRip-AVC от AVP Studio AVP Studio Скачать
1 | 0
Кино СССР [ 1.36 GB ] Белая акация | | DVDRip от AVP Studio AVP Studio Скачать
1 | 0

28-11-2019 20:33  


Отключить вcю реклaмy на сайте, в т.ч. и в плеере онлайн просмотра!

    Дорогой пользователь! Огромная просьба, поблагодарите релизера, оцените раздачу и оставьте свои комментарий, если Вы скачали Белая акация через торрент бесплатно!!
    Комментировать посты могут только пользователи прошедшие не сложную регистрацию
    Показать сообщения:    


    Белая акация через торрент
    Скачать бесплатно Белая акация
    Белая акация скачать торрент
    Белая акация смотреть онлайн
    Cкачать фильм Белая акация бесплатно
    Белая акация скачать торрент в хорошем качестве
    Белая акация смотреть онлайн бесплатно в хорошем качестве
    Вы не можете начинать темы
    Вы не можете отвечать на сообщения
    Вы не можете редактировать свои сообщения
    Вы не можете удалять свои сообщения
    Вы не можете голосовать в опросах
    Вы не можете прикреплять файлы к сообщениям
    Вы можете скачивать файлы