1 сезон

3 сезон

iTunes

1

iTunes

DUB Netflix

iTunes

13

1 сезон

RePack

30

Deluxe

pack

Легкие деньги

ВАЖНО

ИГРА 18+

pack

RePack

MK11

RePack

jed

RePack

fifa19

RePack

RDR2

RePack

NEED FOR SPEED™ PAYBACK

4 сезон

9 сезон

Бесстыжие 9 сезон

Все сериалы

все сериалы на PB.wtf

RePack

FAR CRY 5

Anonymous, добрый день, мы не успеваем до 1 числа собрать деньги на оплату серверов, помогите нам пожалуйста в это трудное время. В качестве благодарности мы отключим Вам всю рекламу на сайте (укажите свой ник в строку Ваше имя)!

×
  
Magnet ссылка

Возмущение / Indignation (Джеймс Шеймус, Филип Рот) [2016, драма, BDRip-AVC] [MVO] (FocusStudio) от ExKinoRay piratbit.org

Возмущение через торрент piratbit.org

Размер: 2.24 GB | Добавлен: 4 года 3 мес. назад | Торрент скачан:102 раза
Скачать  

06-03-2017 14:47 Возмущение Скачать торрент  

Информация о фильме
Название: Возмущение
Оригинальное название: Indignation
Год выпуска: 2016
Страна: США, Китай
Производство: Bing Feng Bao Entertainment, Likely Story, RT Features, X-Filme Creative Pool
Жанр: Драма, мелодрама
Продолжительность: 01:51:14
Перевод: Профессиональный (многоголосый, закадровый) [FocusStudio]
Субтитры: Русские (full), английские (full, SDH)
Режиссер: Джеймс Шеймус
В ролях: Сара Гадон, Логан Лерман, Трэйси Леттс, Тихуана Рикс, Бен Розенфилд, Линда Эмонд, Дорис МакКарти, Мелани Блейк Рот, Джоэнн Барон, Ной Роббинс

Описание: 1951 год. Еврейский юноша Маркус Месснер едет из Ньюарка, штат Нью-Джерси в штат Огайо, где он собирается учиться в колледже. Там, на фоне продолжающийся войны в Корее, ему придется столкнуться с антисемитизмом и сексуальной подавленностью.

rating
Файл
Качество: BDRip (AVC)
Видео: MPEG-4 AVC, 1024x552 (1.85:1), 23.976 fps, ~1990 kbps avg, 0.147 bit/pixel
Аудио №1: русский / AC3 / 5.1 / 48 kHz / 448 kbps /
Аудио №2: английский / AC3 / 5.1 / 48 kHz / 448 kbps /

Релиз от:

Автор релиза:
General
Unique ID : 246167523029110261948967241518513009831 (0xB93223F0D818F9229758F085606A34A7)
Complete name : D:\Indignation.2016.FocusStudio.BDRip.AVC.ExKinoRay.mkv
Format : Matroska
Format version : Version 2
File size : 2.24 GiB
Duration : 1 h 51 min
Overall bit rate : 2 881 kb/s
Movie name : Indignation 2016 from ExKinoRay
Encoded date : UTC 2017-03-06 12:50:38
Writing application : mkvmerge v5.8.0 ('No Sleep / Pillow') built on Sep 2 2012 15:37:04
Writing library : libebml v1.2.3 + libmatroska v1.3.0

Video
ID : 1
Format : AVC
Format/Info : Advanced Video Codec
Format profile : High@L4.1
Format settings, CABAC : Yes
Format settings, ReFrames : 11 frames
Codec ID : V_MPEG4/ISO/AVC
Duration : 1 h 51 min
Bit rate : 1 990 kb/s
Width : 1 024 pixels
Height : 552 pixels
Display aspect ratio : 1.85:1
Frame rate mode : Constant
Frame rate : 23.976 (24000/1001) FPS
Color space : YUV
Chroma subsampling : 4:2:0
Bit depth : 8 bits
Scan type : Progressive
Bits/(Pixel*Frame) : 0.147
Stream size : 1.50 GiB (67%)
Title : Engma
Writing library : x264 core 144 r2525 40bb568
Encoding settings : cabac=1 / ref=11 / deblock=1:-2:-2 / analyse=0x3:0x113 / me=umh / subme=10 / psy=1 / psy_rd=1.02:0.06 / mixed_ref=1 / me_range=32 / chroma_me=1 / trellis=2 / 8x8dct=1 / cqm=0 / deadzone=21,11 / fast_pskip=1 / chroma_qp_offset=-3 / threads=12 / lookahead_threads=3 / sliced_threads=0 / nr=0 / decimate=1 / interlaced=0 / bluray_compat=0 / constrained_intra=0 / bframes=12 / b_pyramid=2 / b_adapt=2 / b_bias=0 / direct=3 / weightb=1 / open_gop=0 / weightp=2 / keyint=240 / keyint_min=23 / scenecut=40 / intra_refresh=0 / rc_lookahead=40 / rc=2pass / mbtree=0 / bitrate=1990 / ratetol=1.0 / qcomp=0.60 / qpmin=0 / qpmax=51 / qpstep=4 / cplxblur=20.0 / qblur=0.5 / vbv_maxrate=50000 / vbv_bufsize=62500 / nal_hrd=none / filler=0 / ip_ratio=1.40 / pb_ratio=1.30 / aq=1:1.00
Language : English
Default : Yes
Forced : No
Color range : Limited
Color primaries : BT.709
Transfer characteristics : BT.709
Matrix coefficients : BT.709

Audio #1
ID : 2
Format : AC-3
Format/Info : Audio Coding 3
Mode extension : CM (complete main)
Format settings, Endianness : Big
Codec ID : A_AC3
Duration : 1 h 51 min
Bit rate mode : Constant
Bit rate : 448 kb/s
Channel(s) : 6 channels
Channel positions : Front: L C R, Side: L R, LFE
Sampling rate : 48.0 kHz
Frame rate : 31.250 FPS (1536 spf)
Bit depth : 16 bits
Compression mode : Lossy
Stream size : 356 MiB (16%)
Title : MVO FocusStudio
Language : Russian
Default : Yes
Forced : No

Audio #2
ID : 3
Format : AC-3
Format/Info : Audio Coding 3
Mode extension : CM (complete main)
Format settings, Endianness : Big
Codec ID : A_AC3
Duration : 1 h 51 min
Bit rate mode : Constant
Bit rate : 448 kb/s
Channel(s) : 6 channels
Channel positions : Front: L C R, Side: L R, LFE
Sampling rate : 48.0 kHz
Frame rate : 31.250 FPS (1536 spf)
Bit depth : 16 bits
Compression mode : Lossy
Stream size : 356 MiB (16%)
Language : English
Default : No
Forced : No

Text #1
ID : 4
Format : UTF-8
Codec ID : S_TEXT/UTF8
Codec ID/Info : UTF-8 Plain Text
Language : Russian
Default : No
Forced : No

Text #2
ID : 5
Format : UTF-8
Codec ID : S_TEXT/UTF8
Codec ID/Info : UTF-8 Plain Text
Title : Full
Language : English
Default : No
Forced : No

Text #3
ID : 6
Format : UTF-8
Codec ID : S_TEXT/UTF8
Codec ID/Info : UTF-8 Plain Text
Language : English
Default : No
Forced : No

Menu
00:00:00.000 : en:Chapter 01
00:07:15.435 : en:Chapter 02
00:16:01.043 : en:Chapter 03
00:21:14.815 : en:Chapter 04
00:28:08.437 : en:Chapter 05
00:35:35.925 : en:Chapter 06
00:43:02.622 : en:Chapter 07
00:48:11.805 : en:Chapter 08
00:57:37.370 : en:Chapter 09
01:04:27.113 : en:Chapter 10
01:10:47.076 : en:Chapter 11
01:21:40.646 : en:Chapter 12
01:27:01.925 : en:Chapter 13
01:33:14.172 : en:Chapter 14
01:41:41.303 : en:Chapter 15
01:46:58.412 : en:Chapter 16
piratbit.org



Скачать Возмущение через торрент http://img11.lostpic.net/2017/03/05/75fc5714f91efa8c0dab147820cfc886.th.jpg Скачать фильм Возмущение через торрент бесплантно в хорошем качестве Описание: 1951 год. Еврейский юноша Маркус Месснер едет из Ньюарка, штат Нью-Джерси в штат Огайо, где он собирается учиться в колледже. ... 7.8 10 4
Info! Золотая раздача, скачанное не засчитывается.
Торрент: Зарегистрирован [2017-03-06 14:47] · скачан: 102 раз
Статус: √ проверено
Размер: 2.24 GB
Как cкачать? Как скачать Возмущение через торрент | UTorrent

28-11-2019 20:33  

Отключить всю рекламу на сайте

    Дорогой пользователь! Огромная просьба, поблагодарите релизера, оцените раздачу и оставьте свои комментарий, если Вы скачали Возмущение через торрент бесплатно! Внесите свою лепту в развитие PiratBit!
    Комментировать посты могут только пользователи прошедшие не сложную регистрацию
    Показать сообщения:    

    Возмущение через торрент
    Скачать бесплатно Возмущение
    Возмущение скачать торрент
    Возмущение смотреть онлайн
    Cкачать фильм Возмущение бесплатно
    Возмущение скачать торрент в хорошем качестве
    Возмущение смотреть онлайн бесплатно в хорошем качестве


    Вы не можете начинать темы
    Вы не можете отвечать на сообщения
    Вы не можете редактировать свои сообщения
    Вы не можете удалять свои сообщения
    Вы не можете голосовать в опросах
    Вы не можете прикреплять файлы к сообщениям
    Вы можете скачивать файлы