1 сезон

3 сезон

iTunes

1

iTunes

DUB Netflix

iTunes

13

1 сезон

RePack

30

Deluxe

pack

Легкие деньги

ВАЖНО

ИГРА 18+

pack

RePack

MK11

RePack

jed

RePack

fifa19

RePack

RDR2

RePack

NEED FOR SPEED™ PAYBACK

4 сезон

9 сезон

Бесстыжие 9 сезон

Все сериалы

все сериалы на PB.wtf

RePack

FAR CRY 5

Anonymous, добрый день, мы не успеваем до 1 числа собрать деньги на оплату серверов, помогите нам пожалуйста в это трудное время. В качестве благодарности мы отключим Вам всю рекламу на сайте (укажите свой ник в строку Ваше имя)!

×
  
Magnet ссылка

Одиссея / L'odyssée (Жером Салль) [2016, приключения, биография, драма, BDRip-AVC] Дубляж [iTunes] от ExKinoRay piratbit.org

Одиссея через торрент piratbit.org

Размер: 2.31 GB | Добавлен: 4 года 1 мес. назад | Торрент скачан:104 раза
Скачать  

06-03-2017 19:19 Одиссея Скачать торрент  

Информация о фильме
Название: Одиссея
Оригинальное название: L'odyssée
Год выпуска: 2016
Страна: Франция
Студия: Canal+ [fr], Casa Productions, Curiosa Films, Moana Films, Orange Cinéma Séries, Pan Européenne Production
Жанр: Приключения, биография, драма
Продолжительность: 02:02:55
Перевод: Дублированный | iTunes
Субтитры: Французские (forced)
Режиссер: Жером Салль
В ролях: Ламбер Вильсон, Пьер Нинэ, Одри Тоту, Лоран Люка, Бенжамин Лаверн, Венсан Энен, Тибо де Монталембер, Рогер Ван Хол, Хлоя Хиршман, Адам Нилл

Описание: Есть пути, которые не отыщешь на картах. Есть цели, которые укажет только любовь. «Одиссея» - самый масштабный приключенческий проект современного французского кино. История героя, открывшего человечеству «второй космос». Его экспедиции вдохновили миллионы. Его главное путешествие осталось тайной. Первопроходец. Мечтатель. Бунтарь. Легендарный Жак-Ив Кусто: его корабль, его открытия, его настоящая Одиссея.

rating

Примечание: Без рекламы
Файл
Качество: BDRip (AVC)
Видео: MPEG-4 AVC, 1024x384 (2.667:1), 23.976 fps, ~1870 kbps avg, 0.198 bit/pixel
Аудио №1: русский / AC3 / 5.1 / 48 kHz / 384 kbps /
Аудио №2: французский / AC3 / 5.1 / 48 kHz / 448 kbps /
General
Unique ID : 242018022658887043644983598977077070828 (0xB612F9C6F3AAB762A8651C17118DCBEC)
Complete name : D:\Odisey.2016.D.BDRip.AVC.ExKinoRay.mkv
Format : Matroska
Format version : Version 2
File size : 2.31 GiB
Duration : 2 h 2 min
Overall bit rate : 2 692 kb/s
Movie name : Odisey 2016 from ExKinoRay
Encoded date : UTC 2017-04-20 23:22:21
Writing application : mkvmerge v5.8.0 ('No Sleep / Pillow') built on Sep 2 2012 15:37:04
Writing library : libebml v1.2.3 + libmatroska v1.3.0

Video
ID : 1
Format : AVC
Format/Info : Advanced Video Codec
Format profile : High@L4.1
Format settings, CABAC : Yes
Format settings, ReFrames : 12 frames
Codec ID : V_MPEG4/ISO/AVC
Duration : 2 h 2 min
Bit rate : 1 870 kb/s
Width : 1 024 pixels
Height : 384 pixels
Display aspect ratio : 2.667
Frame rate mode : Constant
Frame rate : 23.976 (24000/1001) FPS
Color space : YUV
Chroma subsampling : 4:2:0
Bit depth : 8 bits
Scan type : Progressive
Bits/(Pixel*Frame) : 0.198
Stream size : 1.55 GiB (67%)
Title : Enigma
Writing library : x264 core 144 r2525 40bb568
Encoding settings : cabac=1 / ref=12 / deblock=1:-3:-3 / analyse=0x3:0x113 / me=umh / subme=10 / psy=1 / psy_rd=1.00:0.05 / mixed_ref=1 / me_range=32 / chroma_me=1 / trellis=2 / 8x8dct=1 / cqm=0 / deadzone=21,11 / fast_pskip=1 / chroma_qp_offset=-3 / threads=12 / lookahead_threads=3 / sliced_threads=0 / nr=0 / decimate=1 / interlaced=0 / bluray_compat=0 / constrained_intra=0 / bframes=11 / b_pyramid=2 / b_adapt=2 / b_bias=0 / direct=3 / weightb=1 / open_gop=0 / weightp=2 / keyint=240 / keyint_min=23 / scenecut=40 / intra_refresh=0 / rc_lookahead=40 / rc=2pass / mbtree=0 / bitrate=1870 / ratetol=1.0 / qcomp=0.60 / qpmin=0 / qpmax=51 / qpstep=4 / cplxblur=20.0 / qblur=0.5 / vbv_maxrate=50000 / vbv_bufsize=62500 / nal_hrd=none / filler=0 / ip_ratio=1.40 / pb_ratio=1.30 / aq=1:1.00
Language : English
Default : Yes
Forced : No
Color range : Limited
Color primaries : BT.709
Transfer characteristics : BT.709
Matrix coefficients : BT.709

Audio #1
ID : 2
Format : AC-3
Format/Info : Audio Coding 3
Mode extension : CM (complete main)
Format settings, Endianness : Big
Codec ID : A_AC3
Duration : 2 h 2 min
Bit rate mode : Constant
Bit rate : 384 kb/s
Channel(s) : 6 channels
Channel positions : Front: L C R, Side: L R, LFE
Sampling rate : 48.0 kHz
Frame rate : 31.250 FPS (1536 spf)
Compression mode : Lossy
Stream size : 338 MiB (14%)
Title : Dub (iTunes)
Language : Russian
Default : Yes
Forced : No

Audio #2
ID : 3
Format : AC-3
Format/Info : Audio Coding 3
Mode extension : CM (complete main)
Format settings, Endianness : Big
Codec ID : A_AC3
Duration : 2 h 2 min
Bit rate mode : Constant
Bit rate : 448 kb/s
Channel(s) : 6 channels
Channel positions : Front: L C R, Side: L R, LFE
Sampling rate : 48.0 kHz
Frame rate : 31.250 FPS (1536 spf)
Compression mode : Lossy
Stream size : 394 MiB (17%)
Language : French
Default : No
Forced : No

Text
ID : 4
Format : UTF-8
Codec ID : S_TEXT/UTF8
Codec ID/Info : UTF-8 Plain Text
Title : Forced
Language : French
Default : No
Forced : No

Menu
00:00:00.000 : en:Chapter 1
00:06:36.813 : en:Chapter 2
00:14:39.962 : en:Chapter 3
00:24:32.304 : en:Chapter 4
00:34:20.058 : en:Chapter 5
00:43:29.898 : en:Chapter 6
00:53:51.228 : en:Chapter 7
01:05:26.297 : en:Chapter 8
01:18:12.771 : en:Chapter 9
01:31:57.595 : en:Chapter 10
01:44:52.411 : en:Chapter 11
01:56:21.015 : en:Chapter 12
Релиз от:

Автор релиза: piratbit.org



Скачать Одиссея через торрент http://i89.fastpic.ru/big/2017/0306/84/8b2792ed349c1e61e0d691646cdbc584.jpg Скачать фильм Одиссея через торрент бесплантно в хорошем качестве Описание: Есть пути, которые не отыщешь на картах. Есть цели, которые укажет только любовь. «Одиссея» - самый масштабный приключенческий ... 9 10 21
Info! Золотая раздача, скачанное не засчитывается.
Торрент: Зарегистрирован [2017-04-21 02:03] · скачан: 104 раз
Статус: √ проверено
Размер: 2.31 GB
Как cкачать? Как скачать Одиссея через торрент | UTorrent

28-11-2019 20:33  

Отключить всю рекламу на сайте

    Дорогой пользователь! Огромная просьба, поблагодарите релизера, оцените раздачу и оставьте свои комментарий, если Вы скачали Одиссея через торрент бесплатно! Внесите свою лепту в развитие PiratBit!
    Комментировать посты могут только пользователи прошедшие не сложную регистрацию
    Показать сообщения:    

    Одиссея через торрент
    Скачать бесплатно Одиссея
    Одиссея скачать торрент
    Одиссея смотреть онлайн
    Cкачать фильм Одиссея бесплатно
    Одиссея скачать торрент в хорошем качестве
    Одиссея смотреть онлайн бесплатно в хорошем качестве


    Вы не можете начинать темы
    Вы не можете отвечать на сообщения
    Вы не можете редактировать свои сообщения
    Вы не можете удалять свои сообщения
    Вы не можете голосовать в опросах
    Вы не можете прикреплять файлы к сообщениям
    Вы можете скачивать файлы