1 сезон

3 сезон

iTunes

1

iTunes

DUB Netflix

iTunes

13

1 сезон

RePack

30

Deluxe

pack

Легкие деньги

ВАЖНО

ИГРА 18+

pack

RePack

MK11

RePack

jed

RePack

fifa19

RePack

RDR2

RePack

NEED FOR SPEED™ PAYBACK

4 сезон

9 сезон

Бесстыжие 9 сезон

Все сериалы

все сериалы на PB.wtf

RePack

FAR CRY 5

Anonymous, добрый день, мы не успеваем до 1 числа собрать деньги на оплату серверов, помогите нам пожалуйста в это трудное время. В качестве благодарности мы отключим Вам всю рекламу на сайте (укажите свой ник в строку Ваше имя)!

×
  
Magnet ссылка

Другой мир: Войны крови / Underworld: Blood Wars (Анна Ферстер) [2016, ужасы, боевик, BDRip-AVC] Дублированный (Лицензия) от ExKinoRay piratbit.org

Другой мир: Войны крови через торрент piratbit.org

Размер: 1.5 GB | Добавлен: 4 года 2 мес. назад | Торрент скачан:455 раз
Скачать  

07-03-2017 04:38 Другой мир: Войны крови Скачать торрент  

Другой мир: Войны крови / Underworld: Blood Wars

Год выпуска: 2016
Страна: США
Жанр: ужасы, боевик

Продолжительность: 01:31:49
Перевод: Дублированный (Лицензия)
Субтитры: Русские, английские, украинские
Режиссер: Анна Ферстер
В ролях: Кейт Бекинсейл (Selene), Тео Джеймс (David), Тобайас Мензис (Marius), Лара Пулвер (Semira), Чарльз Дэнс (Thomas), Джеймс Фолкнер (Cassius), Петер Андерссон (Vidar), Клементайн Николсон (Lena), Брэдли Джеймс (Varga), Дэйзи Хэд (Alexia), Оливер Старк (Gregor), Зузана Стивинова (Vampire Council #1)
Описание:
Воительница-вампир Селена вступает в свой последний и решающий бой между оборотнями и кланом вампиров, который её предал.
Рейтинг:

MPAA: R - Лицам до 17 лет обязательно присутствие взрослого

Rip by
Качество: BDRip-AVC
Формат: MKV
Видео: AVC, 1024x426 (2.40:1), 1440 kbps, 23,976 fps, 0,138 bpp
Аудио №1: русский / AC3 / 5.1 / 48 kHz / 448 kbps /
Аудио №2: английский / AC3 / 5.1 / 48 kHz / 448 kbps /
Навигация по главам: есть
Благодарность за постер VIRUS
General
Unique ID : 243795975854924544075820341670970343781 (0xB76965A33C07A116B15483C92EEF4165)
Complete name : D:\Underworld.Blood.Wars.2016.D.BDRip.AVC.ExKinoRay.mkv
Format : Matroska
Format version : Version 2
File size : 1.50 GiB
Duration : 1 h 31 min
Overall bit rate : 2 340 kb/s
Movie name : Underworld Blood Wars 2016 from ExKinoRay
Encoded date : UTC 2017-03-27 20:52:25
Writing application : mkvmerge v5.8.0 ('No Sleep / Pillow') built on Sep 2 2012 15:37:04
Writing library : libebml v1.2.3 + libmatroska v1.3.0

Video
ID : 1
Format : AVC
Format/Info : Advanced Video Codec
Format profile : High@L4.1
Format settings, CABAC : Yes
Format settings, ReFrames : 12 frames
Codec ID : V_MPEG4/ISO/AVC
Duration : 1 h 31 min
Bit rate : 1 440 kb/s
Width : 1 024 pixels
Height : 426 pixels
Display aspect ratio : 2.40:1
Frame rate mode : Constant
Frame rate : 23.976 (24000/1001) FPS
Color space : YUV
Chroma subsampling : 4:2:0
Bit depth : 8 bits
Scan type : Progressive
Bits/(Pixel*Frame) : 0.138
Stream size : 915 MiB (60%)
Title : Enigma
Writing library : x264 core 144 r2525 40bb568
Encoding settings : cabac=1 / ref=12 / deblock=1:-2:-2 / analyse=0x3:0x113 / me=umh / subme=10 / psy=1 / psy_rd=1.02:0.05 / mixed_ref=1 / me_range=32 / chroma_me=1 / trellis=2 / 8x8dct=1 / cqm=0 / deadzone=21,11 / fast_pskip=1 / chroma_qp_offset=-3 / threads=12 / lookahead_threads=3 / sliced_threads=0 / nr=0 / decimate=1 / interlaced=0 / bluray_compat=0 / constrained_intra=0 / bframes=10 / b_pyramid=2 / b_adapt=2 / b_bias=0 / direct=3 / weightb=1 / open_gop=0 / weightp=2 / keyint=240 / keyint_min=23 / scenecut=40 / intra_refresh=0 / rc_lookahead=40 / rc=2pass / mbtree=0 / bitrate=1440 / ratetol=1.0 / qcomp=0.60 / qpmin=0 / qpmax=51 / qpstep=4 / cplxblur=20.0 / qblur=0.5 / vbv_maxrate=50000 / vbv_bufsize=62500 / nal_hrd=none / filler=0 / ip_ratio=1.40 / pb_ratio=1.30 / aq=1:0.80
Language : English
Default : Yes
Forced : No
Color range : Limited
Color primaries : BT.709
Transfer characteristics : BT.709
Matrix coefficients : BT.709

Audio #1
ID : 2
Format : AC-3
Format/Info : Audio Coding 3
Mode extension : CM (complete main)
Format settings, Endianness : Big
Codec ID : A_AC3
Duration : 1 h 31 min
Bit rate mode : Constant
Bit rate : 448 kb/s
Channel(s) : 6 channels
Channel positions : Front: L C R, Side: L R, LFE
Sampling rate : 48.0 kHz
Frame rate : 31.250 FPS (1536 spf)
Compression mode : Lossy
Stream size : 293 MiB (19%)
Title : Dub (Лицензия)
Language : Russian
Default : Yes
Forced : No

Audio #2
ID : 3
Format : AC-3
Format/Info : Audio Coding 3
Mode extension : CM (complete main)
Format settings, Endianness : Big
Codec ID : A_AC3
Duration : 1 h 31 min
Bit rate mode : Constant
Bit rate : 448 kb/s
Channel(s) : 6 channels
Channel positions : Front: L C R, Side: L R, LFE
Sampling rate : 48.0 kHz
Frame rate : 31.250 FPS (1536 spf)
Compression mode : Lossy
Stream size : 293 MiB (19%)
Language : English
Default : No
Forced : No

Text #1
ID : 4
Format : UTF-8
Codec ID : S_TEXT/UTF8
Codec ID/Info : UTF-8 Plain Text
Title : iTunes
Language : Russian
Default : No
Forced : No

Text #2
ID : 5
Format : UTF-8
Codec ID : S_TEXT/UTF8
Codec ID/Info : UTF-8 Plain Text
Title : iTunes
Language : Ukrainian
Default : No
Forced : No

Text #3
ID : 6
Format : UTF-8
Codec ID : S_TEXT/UTF8
Codec ID/Info : UTF-8 Plain Text
Language : English
Default : No
Forced : No

Menu
00:00:00.000 : en:Chapter 1
00:04:30.478 : en:Chapter 2
00:09:25.314 : en:Chapter 3
00:13:59.964 : en:Chapter 4
00:18:56.009 : en:Chapter 5
00:24:27.090 : en:Chapter 6
00:31:15.957 : en:Chapter 7
00:36:26.809 : en:Chapter 8
00:42:17.034 : en:Chapter 9
00:47:37.646 : en:Chapter 10
00:52:22.180 : en:Chapter 11
00:58:59.327 : en:Chapter 12
01:04:31.659 : en:Chapter 13
01:08:52.128 : en:Chapter 14
01:13:47.131 : en:Chapter 15
01:20:08.512 : en:Chapter 16
piratbit.org



Скачать Другой мир: Войны крови через торрент http://funkyimg.com/i/2qCLc.gif Скачать фильм Другой мир: Войны крови через торрент бесплантно в хорошем качестве Описание: Воительница-вампир Селена вступает в свой последний и решающий бой между оборотнями и кланом вампиров, который её ... 9.1 10 28
× Info от релизера! Замена на лицензию
Info! Золотая раздача, скачанное не засчитывается.
Торрент: Зарегистрирован [2017-03-27 21:23] · скачан: 455 раз
Статус: √ проверено
Размер: 1.5 GB
Как cкачать? Как скачать Другой мир: Войны крови через торрент | UTorrent

% Раздел Тема Автор DL S | L
Фильмы (Blu-ray, BD-Remux, HDDVD) [ 18.11 GB ] Другой мир: Войны крови / Underworld: Blood Wars [2016 BDRemux 1080p от ExKinoRay] / Russian Mafia Скачать
1 | 0


Последний раз редактировалось: Enigma2010 (2017-03-27 21:23), всего редактировалось 8 раз(а)

28-11-2019 20:33  

Отключить всю рекламу на сайте

07-03-2017 05:11 Другой мир: Войны крови Скачать торрент  

Спасибо за релиз.
1 и 2-я часть были шикарны. Все что было после, мягко говоря не очень. Не думаю что тут будет прорыв какой-то. Но, гляну. Интересно что в очередной раз "наснимали"piratbit.org



07-03-2017 05:22 Другой мир: Войны крови Скачать торрент  

Немного обидно за Кейт и Милку,надо было ж подписаться на такое...(да,первые части были хороши)piratbit.org



07-03-2017 05:34 Другой мир: Войны крови Скачать торрент  

То ли я старею, то ли Underworld уже не тот. Первые две части смотрелись на одном дыхании. Глядя эту часть постоянно ловил себя на мысли:"На фига я это смотрю? ".В общем досмотрел. Но если бы не смотрел, то ничего бы не потерял.piratbit.org



22-03-2017 08:33 Другой мир: Войны крови Скачать торрент  

piratbit.org



22-03-2017 13:52 Другой мир: Войны крови Скачать торрент  

qwasar писал(а):

То ли я старею, то ли Underworld уже не тот. Первые две части смотрелись на одном дыхании. Глядя эту часть постоянно ловил себя на мысли:"На фига я это смотрю? ".В общем досмотрел. Но если бы не смотрел, то ничего бы не потерял.

Ты просто повзрослел, или измнилось мировоззрениеpiratbit.org



28-03-2017 16:52 Другой мир: Войны крови Скачать торрент  

Enigma2010, зачётный постер ))) спс за релиз ))) piratbit.org



    Дорогой пользователь! Огромная просьба, поблагодарите релизера, оцените раздачу и оставьте свои комментарий, если Вы скачали Другой мир: Войны крови через торрент бесплатно! Внесите свою лепту в развитие PiratBit!
    Комментировать посты могут только пользователи прошедшие не сложную регистрацию
    Показать сообщения:    

    Другой мир: Войны крови через торрент
    Скачать бесплатно Другой мир: Войны крови
    Другой мир: Войны крови скачать торрент
    Другой мир: Войны крови смотреть онлайн
    Cкачать фильм Другой мир: Войны крови бесплатно
    Другой мир: Войны крови скачать торрент в хорошем качестве
    Другой мир: Войны крови смотреть онлайн бесплатно в хорошем качестве


    Вы не можете начинать темы
    Вы не можете отвечать на сообщения
    Вы не можете редактировать свои сообщения
    Вы не можете удалять свои сообщения
    Вы не можете голосовать в опросах
    Вы не можете прикреплять файлы к сообщениям
    Вы можете скачивать файлы