Доктор Стрэндж

Лицензия

Добыча

MVO

Дом дракона

1 сезон

Тор

Лицензия

Мэверик

Лицензия

Там, где раки поют

MVO

Властелин колец

1 сезон

Ultimate

pack

Рекомендуем

30

Repack

ВАЖНО

ВАЖНО

Ghostwire

RePack

jed

RePack

nioh2

RePack

RDR2

RePack

NEED FOR SPEED™ PAYBACK

RePack

скачать торрент

Кинопоиск HD

Острые козырьки 6 сезон

6 сезон

FAR CRY 6

RePack

скачать торрент

Лицензия

скачать торрент

MVO

1

1 сезон

скачать торрент

1 сезон

скачать торрент

Лицензия

  

Без вести пропавший (Исаак Шмарук) [1956, СССР, драма, военный, DVDRip от AVP Studio]

Без вести пропавший через торрент piratbit.org

Размер: 745 MB | Добавлен: 5 лет 6 мес. назад | Торрент скачан:12 раз
Смотреть онлайн Без вести пропавший | Скачать   

07-03-2017 10:07 Без вести пропавший Скачать торрент  

Без вести пропавший
Страна: СССР
Производство: Киевская киностудия

Жанр: драма, военный
Год выпуска: 1956
Продолжительность: 01:13:52

Перевод: Не требуется
Cубтитры: нет
Оригинальная аудиодорожка: русский

Режиссер: Исаак Шмарук

В ролях:
Михаил Кузнецов, Софья Гиацинтова, Байба Индриксоне, Наталья Ужвий, Владимир Васильев (II), Виктор Добровольский, Николай Дупак, Лев Бордуков, Юрий Чекулаев, Олег Голубицкий, Лаврентий Масоха, Сергей Голованов...
Об актёрах подробней

Описание:
1942 год. Воспользовавшись документами погибшего чешского врача, служившего в фашистской армии, советский офицер, чудом оставшийся после боя в живых, добирается до Словакии и разыскивает мать погибшего. Здесь он находит временный приют и поддержку, вступает в интернациональный партизанский отряд и вскоре становится его командиром...

Источник: DVD5 R5
Качество видео: DVDRip
Формат видео: AVI

Видео: 640x480 (4:3), 25 fps, XviD ~ 1272 kbps avg, 0.166 bit/pixel
Аудио: 48 kHz, MP3 2.0, 128 kbps

Раздача от:
Общее
Полное имя : Bez.vesti.propavshiy.1956.DVDRip-745_[New-team]_by_AVP_Studio.avi
Формат : AVI
Формат/Информация : Audio Video Interleave
Размер файла : 745 Мбайт
Продолжительность : 1 ч. 13 м.
Общий поток : 1410 Кбит/сек
Программа кодирования : VirtualDubMod 1.5.10.3 | www.virtualdub-fr.org || (build 2550/release)
Библиотека кодирования : VirtualDubMod build 2550/release

Видео
Идентификатор : 0
Формат : MPEG-4 Visual
Профиль формата : Advanced Simple@L5
Параметр BVOP формата : 1
Параметр QPel формата : Нет
Параметр GMC формата : Без точки перехода
Параметр матрицы формата : Выборочная
Идентификатор кодека : XVID
Идентификатор кодека/Подсказка : XviD
Продолжительность : 1 ч. 13 м.
Битрейт : 1272 Кбит/сек
Ширина : 640 пикселей
Высота : 480 пикселей
Соотношение сторон : 4:3
Частота кадров : 25,000 кадров/сек
Цветовое пространство : YUV
Субдискретизация насыщенности : 4:2:0
Битовая глубина : 8 бит
Тип развёртки : Прогрессивная
Метод сжатия : С потерями
Бит/(Пиксели*Кадры) : 0.166
Размер потока : 672 Мбайт (90%)
Библиотека кодирования : XviD 73

Аудио
Идентификатор : 1
Формат : MPEG Audio
Версия формата : Version 1
Профиль формата : Layer 3
Идентификатор кодека : 55
Идентификатор кодека/Подсказка : MP3
Продолжительность : 1 ч. 13 м.
Вид битрейта : Постоянный
Битрейт : 128 Кбит/сек
Каналы : 2 канала
Частота : 48,0 КГц
Метод сжатия : С потерями
Размер потока : 67,6 Мбайт (9%)
Выравнивание : Соединение по промежуткам
Продолжительность промежутка : 40 мс. (1,00 видеокадр)
Время предзагрузки промежутка : 504 мс.
Библиотека кодирования : LAME3.99r
Настройки программы : -m s -V 4 -q 2 -lowpass 17 -b 128



Скачать Без вести пропавший через торрент http://s02.radikal.ru/i175/1703/95/24924623f5c6.png Скачать, смотреть онлайн Без вести пропавший бесплантно в хорошем качестве Описание:1942 год. Воспользовавшись документами погибшего чешского врача, служившего в фашистской армии, советский офицер, чудом оставшийся ... 5 10 1
Info! Золотая раздача, скачанное не засчитывается.
Торрент: Зарегистрирован [2017-03-07 10:07] · скачан: 12 раз
Статус: √ проверено
Размер: 745 MB
Как cкачать? Как скачать Без вести пропавший через торрент | UTorrent

% Раздел Тема Автор DL S | L
Кино СССР [ 1.09 GB ] Без вести пропавший | | DVDRip-AVC от AVP Studio AVP Studio Скачать
1 | 0
Кино СССР [ 1.09 GB ] Без вести пропавший | | DVDRip от AVP Studio AVP Studio Скачать
1 | 0

28-11-2019 20:33  

Отключить вcю реклaмy на сайте

    Дорогой пользователь! Огромная просьба, поблагодарите релизера, оцените раздачу и оставьте свои комментарий, если Вы скачали Без вести пропавший через торрент бесплатно!!
    Комментировать посты могут только пользователи прошедшие не сложную регистрацию
    Показать сообщения:    


    Без вести пропавший через торрент
    Скачать бесплатно Без вести пропавший
    Без вести пропавший скачать торрент
    Без вести пропавший смотреть онлайн
    Cкачать фильм Без вести пропавший бесплатно
    Без вести пропавший скачать торрент в хорошем качестве
    Без вести пропавший смотреть онлайн бесплатно в хорошем качестве
    Вы не можете начинать темы
    Вы не можете отвечать на сообщения
    Вы не можете редактировать свои сообщения
    Вы не можете удалять свои сообщения
    Вы не можете голосовать в опросах
    Вы не можете прикреплять файлы к сообщениям
    Вы можете скачивать файлы