Доктор Стрэндж

Лицензия

Добыча

MVO

Дом дракона

1 сезон

Тор

Лицензия

Мэверик

Лицензия

Там, где раки поют

MVO

Властелин колец

1 сезон

Ultimate

pack

Рекомендуем

30

Repack

ВАЖНО

ВАЖНО

Ghostwire

RePack

jed

RePack

nioh2

RePack

RDR2

RePack

NEED FOR SPEED™ PAYBACK

RePack

скачать торрент

Кинопоиск HD

Острые козырьки 6 сезон

6 сезон

FAR CRY 6

RePack

скачать торрент

Лицензия

скачать торрент

MVO

1

1 сезон

скачать торрент

1 сезон

скачать торрент

Лицензия

  

Дон Сезар де Базан (Ян Фрид) [1989, СССР, мюзикл, комедия, DVDRip от AVP Studio]

Дон Сезар де Базан через торрент piratbit.org

Размер: 2.18 GB | Добавлен: 5 лет 6 мес. назад | Торрент скачан:7 раз
Смотреть онлайн | Скачать   

08-03-2017 09:02 Дон Сезар де Базан Скачать торрент  

Дон Сезар де Базан
Страна: СССР
Производство: Ленфильм

Жанр: мюзикл, комедия
Год выпуска: 1989
Продолжительность: 02:14:01 (01:08:22 + 01:05:39)

Перевод: Не требуется
Cубтитры: нет
Оригинальная аудиодорожка: русский

Режиссер: Ян Фрид

В ролях:
Михаил Боярский, Анна Самохина, Юрий Богатырёв, Наталья Лапина, Виктория Горшенина, Михаил Светин, Юрий Дедович, Игорь Дмитриев, Андрей Краско, Людмила Ксенофонтова, Валентин Маслов, Герман Орлов, А. Потапов (II), Эдуард Розовский, Максим Сергеев, Марина Юрасова...
Об актёрах подробней

Описание:
Телефильм. Музыкальная комедия по мотивам одноименной пьесы Филиппа Дюмануара и Адольфа Д`Эннери.
Испания XVIII век. История любви обедневшего графа и уличной танцовщицы, участие в которой, к несчастью, принимал сам король…
Последняя работа в кино Юрия Богатырёва. На экраны фильм вышел уже после смерти актёра.

Источник: DVD9 R5
Качество видео: DVDRip
Формат видео: AVI

Видео: 704x528 (4:3), 25 fps, XviD ~ 1869 kbps avg, 0.201 bit/pixel
Аудио: 48 kHz, Dolby Digital AC3 5.1, 448 kbps

Раздача от:
Общее
Полное имя : Don.Sezar.de.Bazan.1989.DVDRip_[New-team]_by_AVP_Studio\1-я серия.avi
Формат : AVI
Формат/Информация : Audio Video Interleave
Размер файла : 1,11 Гбайт
Продолжительность : 1 ч. 8 м.
Общий поток : 2327 Кбит/сек
Программа кодирования : VirtualDubMod 1.5.10.3 | www.virtualdub-fr.org || (build 2550/release)
Библиотека кодирования : VirtualDubMod build 2550/release

Видео
Идентификатор : 0
Формат : MPEG-4 Visual
Профиль формата : Advanced Simple@L5
Параметр BVOP формата : 1
Параметр QPel формата : Нет
Параметр GMC формата : Без точки перехода
Параметр матрицы формата : Выборочная
Идентификатор кодека : XVID
Идентификатор кодека/Подсказка : XviD
Продолжительность : 1 ч. 8 м.
Битрейт : 1869 Кбит/сек
Ширина : 704 пикселя
Высота : 528 пикселей
Соотношение сторон : 4:3
Частота кадров : 25,000 кадров/сек
Цветовое пространство : YUV
Субдискретизация насыщенности : 4:2:0
Битовая глубина : 8 бит
Тип развёртки : Прогрессивная
Метод сжатия : С потерями
Бит/(Пиксели*Кадры) : 0.201
Размер потока : 914 Мбайт (80%)
Библиотека кодирования : XviD 73

Аудио
Идентификатор : 1
Формат : AC-3
Формат/Информация : Audio Coding 3
Расширение режима : CM (complete main)
Параметр Endianness формата : Big
Идентификатор кодека : 2000
Продолжительность : 1 ч. 8 м.
Вид битрейта : Постоянный
Битрейт : 448 Кбит/сек
Каналы : 6 каналов
Расположение каналов : Front: L C R, Side: L R, LFE
Частота : 48,0 КГц
Частота кадров : 31,250 кадров/сек (1536 spf)
Битовая глубина : 16 бит
Метод сжатия : С потерями
Размер потока : 219 Мбайт (19%)
Выравнивание : Разделение по промежуткам
Продолжительность промежутка : 40 мс. (1,00 видеокадр)
Время предзагрузки промежутка : 500 мс



Скачать Дон Сезар де Базан через торрент http://s019.radikal.ru/i642/1703/2b/02f60394ac69.png Скачать, смотреть онлайн Дон Сезар де Базан бесплантно в хорошем качестве Описание:Телефильм. Музыкальная комедия по мотивам одноименной пьесы Филиппа Дюмануара и Адольфа Д`Эннери.Испания XVIII век. История любви ... 10 10 1
Info! Золотая раздача, скачанное не засчитывается.
Торрент: Зарегистрирован [2017-03-08 09:02] · скачан: 7 раз
Статус: √ проверено
Размер: 2.18 GB
Как cкачать? Как скачать Дон Сезар де Базан через торрент | UTorrent

% Раздел Тема Автор DL S | L
Кино СССР [ 2.18 GB ] Дон Сезар де Базан | | DVDRip-AVC от AVP Studio AVP Studio Скачать
1 | 0
Кино СССР [ 1.09 GB ] Дон Сезар де Базан | | DVDRip от AVP Studio AVP Studio Скачать
1 | 0

28-11-2019 20:33  


Отключить вcю реклaмy на сайте, в т.ч. и в плеере онлайн просмотра!

    Дорогой пользователь! Огромная просьба, поблагодарите релизера, оцените раздачу и оставьте свои комментарий, если Вы скачали Дон Сезар де Базан через торрент бесплатно!!
    Комментировать посты могут только пользователи прошедшие не сложную регистрацию
    Показать сообщения:    


    Дон Сезар де Базан через торрент
    Скачать бесплатно Дон Сезар де Базан
    Дон Сезар де Базан скачать торрент
    Дон Сезар де Базан смотреть онлайн
    Cкачать фильм Дон Сезар де Базан бесплатно
    Дон Сезар де Базан скачать торрент в хорошем качестве
    Дон Сезар де Базан смотреть онлайн бесплатно в хорошем качестве
    Вы не можете начинать темы
    Вы не можете отвечать на сообщения
    Вы не можете редактировать свои сообщения
    Вы не можете удалять свои сообщения
    Вы не можете голосовать в опросах
    Вы не можете прикреплять файлы к сообщениям
    Вы можете скачивать файлы