1 сезон

3 сезон

iTunes

1

iTunes

DUB Netflix

iTunes

13

1 сезон

RePack

30

Deluxe

pack

Легкие деньги

ВАЖНО

ИГРА 18+

pack

RePack

MK11

RePack

jed

RePack

fifa19

RePack

RDR2

RePack

NEED FOR SPEED™ PAYBACK

4 сезон

9 сезон

Бесстыжие 9 сезон

Все сериалы

все сериалы на PB.wtf

RePack

FAR CRY 5

Anonymous, добрый день, мы не успеваем до 1 числа собрать деньги на оплату серверов, помогите нам пожалуйста в это трудное время. В качестве благодарности мы отключим Вам всю рекламу на сайте (укажите свой ник в строку Ваше имя)!

×
  
Magnet ссылка

Крах / Breakdown (Джонни Малачи) [2016, Триллер, WEB-DLRip] Любительский многоголосый [Синема УС] piratbit.org

Крах через торрент piratbit.org

Размер: 1.37 GB | Добавлен: 4 года 3 мес. назад | Торрент скачан:137 раз
Скачать  

08-03-2017 16:21 Крах Скачать торрент  

Крах / Breakdown
Страна: Великобритания

Год выпуска: 2016
Страна: Великобритания
Жанр: Триллер
Продолжительность: 01:50:49
Перевод: Любительский [многоголосый] ["Синема УС"]
Режиссер: Джонни Малачи
В ролях: Крэйг Фэйрбрасс (Alfie Jennings), Эммет Джей Скэнлэн (Connor Moran), Джеймс Космо (Albert Chapman), Мем Ферда (Hakan Abaci), Тамер Хассан (Iraz Kartal), Оливия Грант (Catherine Jennings), Брюс Пэйн (Peter Grainger), Рэб Аффлек (Ronnie Anderson), Аманда Уосс (Maya Jennings), Joseph Accerelli (Abaci Driver), Родриг Андрисан (Josef), Кеннет Аткинс (Old Frankie)
Описание:
Работа профессионального наемного убийцы трудна и опасна. Его мучает совесть за прошлую жизнь. Однако сейчас у него новые заботы. Он вынужден защищать свою семью от его безжалостных работодателей.
Рейтинг:

Качество: WEB-DLRip
Формат: AVI
Видео: XviD, 720x304 (2.35:1), 1563 kbps, 23,976 fps, 0,298 bpp
Аудио: AC3 / 2.0 / 48 kHz / 192 kbps /


General
Complete name : G:\Breakdown.2016.P.WEB_DLRip.14OOMB_KOSHARA.avi
Format : AVI
Format/Info : Audio Video Interleave
File size : 1.37 GiB
Duration : 1 h 50 min
Overall bit rate : 1 765 kb/s
Writing application : VirtualDubMod 1.5.10.2 (build 2540/release)
Writing library : VirtualDubMod build 2540/release

Video
ID : 0
Format : MPEG-4 Visual
Format profile : Advanced Simple@L5
Format settings, BVOP : 2
Format settings, QPel : No
Format settings, GMC : No warppoints
Format settings, Matrix : Default (MPEG)
Codec ID : XVID
Codec ID/Hint : XviD
Duration : 1 h 50 min
Bit rate : 1 563 kb/s
Width : 720 pixels
Height : 304 pixels
Display aspect ratio : 2.35:1
Frame rate : 23.976 (24000/1001) FPS
Color space : YUV
Chroma subsampling : 4:2:0
Bit depth : 8 bits
Scan type : Progressive
Compression mode : Lossy
Bits/(Pixel*Frame) : 0.298
Stream size : 1.21 GiB (89%)
Writing library : XviD 1.2.1 (UTC 2008-12-04)

Audio
ID : 1
Format : AC-3
Format/Info : Audio Coding 3
Mode extension : CM (complete main)
Format settings, Endianness : Big
Codec ID : 2000
Duration : 1 h 50 min
Bit rate mode : Constant
Bit rate : 192 kb/s
Channel(s) : 2 channels
Channel positions : Front: L R
Sampling rate : 48.0 kHz
Frame rate : 31.250 FPS (1536 spf)
Compression mode : Lossy
Stream size : 152 MiB (11%)
Alignment : Split accross interleaves
Interleave, duration : 42 ms (1.00 video frame)
Interleave, preload duration : 500 ms
piratbit.org



Скачать Крах через торрент http://i89.fastpic.ru/big/2017/0308/6e/3d468ff3601a333f0a464c2b98585b6e.jpg Скачать фильм Крах через торрент бесплантно в хорошем качестве Описание: Работа профессионального наемного убийцы трудна и опасна. Его мучает совесть за прошлую жизнь. Однако сейчас у него новые заботы. ... 7.4 10 7
Торрент: Зарегистрирован [2017-03-08 16:21] · скачан: 137 раз
Статус: T временная
Размер: 1.37 GB
Как cкачать? Как скачать Крах через торрент | UTorrent



Последний раз редактировалось: max199200 (2017-03-08 18:12), всего редактировалось 1 раз

28-11-2019 20:33  

Отключить всю рекламу на сайте

08-03-2017 16:57 Крах Скачать торрент  

max199200 писал(а):

Крах /Великобритания (Джонни Малачи ) [2016, Триллер, WEB-DLRip] Любительский [многоголосый]["Синема УС"]

max199200, Правила раздела Фильмы. Как правильно оформить раздачу фильма
1. Страну в заголовке указывать не надо. Общий вид заголовка:

Цитата:

Название на русском / Название на оригинале (режиссер) [год, жанр, качество, перевод]

2. Уберите теги [code] из спойлера с отчетом МедиаИнфо, просьба не использовать эти теги при оформлении раздач, т.к. идет большая нагрузка на сервер. Чтобы не убирать каждый раз теги вручную советую отредактировать шаблон ФлешРелиза, как это сделать рассказано здесь: Flash Release - программа для автоматизации создания релизов piratbit.org



08-03-2017 17:58 Крах Скачать торрент  

max199200, переношу в раздел для пробных раздач, до исправления замечаний. Важно, чтобы Вы понимали, как правильно оформлять раздачи.

Подсказка:

1. Заголовок должен быть таким:
Крах / Breakdown (Джонни Малачи) [2016, Триллер, WEB-DLRip] Любительский многоголосый [Синема УС]

2. Необходимо убрать теги [code] из спойлера с отчетом МедиаИнфо (смотрите на скринах, выделено красным)



Когда исправите, или если есть вопросы, пишите здесь или в л/с.piratbit.org





Последний раз редактировалось: -Lexx- (2017-03-08 18:22), всего редактировалось 1 раз

08-03-2017 18:14 Крах Скачать торрент  

-Lexx-, все поправил.piratbit.org
K-Lexx- писал(а):

Теперь всё правильно, благодарю.



    Дорогой пользователь! Огромная просьба, поблагодарите релизера, оцените раздачу и оставьте свои комментарий, если Вы скачали Крах через торрент бесплатно! Внесите свою лепту в развитие PiratBit!
    Комментировать посты могут только пользователи прошедшие не сложную регистрацию
    Показать сообщения:    

    Крах через торрент
    Скачать бесплатно Крах
    Крах скачать торрент
    Крах смотреть онлайн
    Cкачать фильм Крах бесплатно
    Крах скачать торрент в хорошем качестве
    Крах смотреть онлайн бесплатно в хорошем качестве


    Вы не можете начинать темы
    Вы не можете отвечать на сообщения
    Вы не можете редактировать свои сообщения
    Вы не можете удалять свои сообщения
    Вы не можете голосовать в опросах
    Вы не можете прикреплять файлы к сообщениям
    Вы можете скачивать файлы