1 сезон

3 сезон

iTunes

1

iTunes

DUB Netflix

iTunes

13

1 сезон

RePack

30

Deluxe

pack

Легкие деньги

ВАЖНО

ИГРА 18+

pack

RePack

MK11

RePack

jed

RePack

fifa19

RePack

RDR2

RePack

NEED FOR SPEED™ PAYBACK

4 сезон

9 сезон

Бесстыжие 9 сезон

Все сериалы

все сериалы на PB.wtf

RePack

FAR CRY 5

Anonymous, добрый вечер, мы не успеваем до 1 числа собрать деньги на оплату серверов, помогите нам пожалуйста в это трудное время. В качестве благодарности мы отключим Вам всю рекламу на сайте (укажите свой ник в строку Ваше имя)!

×
  
Magnet ссылка

Не попавший в команду / Undrafted (Джозеф Маццелло ) [2016, драма, комедия, спорт, DVDRip] Любительский многоголосый [Синема-Ус] piratbit.org

Не попавший в команду через торрент piratbit.org

Размер: 1.37 GB | Добавлен: 4 года 3 мес. назад | Торрент скачан:50 раз
Скачать  

09-03-2017 12:03 Не попавший в команду Скачать торрент  

Не попавший в команду / Undrafted

Год выпуска: 2016
Страна: США
Жанр: драма, комедия, спорт
Продолжительность: 01:40:52
Перевод: Любительский многоголосый [Синема-Ус]
Режиссер: Джозеф Маццелло
В ролях: Тайлер Хэклин (Dells), Филип Уинчестер (Fotch), Джозеф Маццелло (Pat Murray), Чейс Кроуфорд (Arthur Barone), Аарон Твейт (John Mazetti), Джеймс Белуши (Jim), Билли Гарделл (Umpire Haze), Майкл Фишман (Antonelli), Мэтт Барр (Anthony), Мэнни Монтана (Zapata), Мэтт Буш (David), Тоби Хемингуэй (Palacco)
Описание:
«Не принят Главной лигой», - эта новость становится ударом для звезды студенческой бейсбольной команды, а последующая игра с товарищами превращается в борьбу с несбывшейся мечтой, первым шагом прочь от спорта - навстречу неопределенному будущему.
Рейтинг:

Качество: DVDRip
Формат: AVI
Видео: XviD, 720x400 (16:9), 1735 kbps, 29,970 fps, 0,201 bpp
Аудио: AC3 / 2.0 / 48 kHz / 192 kbps /
Сэмпл

General
Complete name : G:\Undrafted.2016.P.DVDRip.14OOMB.avi
Format : AVI
Format/Info : Audio Video Interleave
File size : 1.37 GiB
Duration : 1 h 40 min
Overall bit rate : 1 940 kb/s
Writing application : VirtualDubMod 1.5.10.2 (build 2540/release)
Writing library : VirtualDubMod build 2540/release

Video
ID : 0
Format : MPEG-4 Visual
Format profile : Advanced Simple@L5
Format settings, BVOP : 2
Format settings, QPel : No
Format settings, GMC : No warppoints
Format settings, Matrix : Default (MPEG)
Codec ID : XVID
Codec ID/Hint : XviD
Duration : 1 h 40 min
Bit rate : 1 736 kb/s
Width : 720 pixels
Height : 400 pixels
Display aspect ratio : 16:9
Frame rate : 29.970 (30000/1001) FPS
Color space : YUV
Chroma subsampling : 4:2:0
Bit depth : 8 bits
Scan type : Progressive
Compression mode : Lossy
Bits/(Pixel*Frame) : 0.201
Stream size : 1.22 GiB (89%)
Writing library : XviD 1.2.1 (UTC 2008-12-04)

Audio
ID : 1
Format : AC-3
Format/Info : Audio Coding 3
Mode extension : CM (complete main)
Format settings, Endianness : Big
Codec ID : 2000
Duration : 1 h 40 min
Bit rate mode : Constant
Bit rate : 192 kb/s
Channel(s) : 2 channels
Channel positions : Front: L R
Sampling rate : 48.0 kHz
Frame rate : 31.250 FPS (1536 spf)
Compression mode : Lossy
Stream size : 139 MiB (10%)
Alignment : Split accross interleaves
Interleave, duration : 33 ms (1.00 video frame)
Interleave, preload duration : 500 ms
piratbit.org



Скачать Не попавший в команду через торрент http://i91.fastpic.ru/big/2017/0309/25/204b950241e6ef4ad6ae12bc6a2a2625.png Скачать фильм Не попавший в команду через торрент бесплантно в хорошем качестве Описание: «Не принят Главной лигой», - эта новость становится ударом для звезды студенческой бейсбольной команды, а последующая игра с ... 6.3 10 3
Торрент: Зарегистрирован [2017-03-09 12:03] · скачан: 50 раз
Статус: T временная
Размер: 1.37 GB
Как cкачать? Как скачать Не попавший в команду через торрент | UTorrent

28-11-2019 20:33  

Отключить всю рекламу на сайте

    Дорогой пользователь! Огромная просьба, поблагодарите релизера, оцените раздачу и оставьте свои комментарий, если Вы скачали Не попавший в команду через торрент бесплатно! Внесите свою лепту в развитие PiratBit!
    Комментировать посты могут только пользователи прошедшие не сложную регистрацию
    Показать сообщения:    

    Не попавший в команду через торрент
    Скачать бесплатно Не попавший в команду
    Не попавший в команду скачать торрент
    Не попавший в команду смотреть онлайн
    Cкачать фильм Не попавший в команду бесплатно
    Не попавший в команду скачать торрент в хорошем качестве
    Не попавший в команду смотреть онлайн бесплатно в хорошем качестве


    Вы не можете начинать темы
    Вы не можете отвечать на сообщения
    Вы не можете редактировать свои сообщения
    Вы не можете удалять свои сообщения
    Вы не можете голосовать в опросах
    Вы не можете прикреплять файлы к сообщениям
    Вы можете скачивать файлы