Ссылка на приватное зеркало нашего сайта всего за 1$. Внимание количество ограничено!!!

2 сезон

iTunes

1 сезон

1

iTunes

iTunes

iTunes

1 сезон

RePack

30

ИГРА 18+

pack

ВАЖНО

!!Акция!!

Alien_RageХит недели

RePack

MK11
pack

Забери бонус

RePack

jed

!!Акция!!

Alien_Rage

RePack

fifa19

RePack

Assassins Creed: Odyssey

RePack

NEED FOR SPEED™ PAYBACK

4 сезон

9 сезон

Бесстыжие 9 сезон

Все сериалы

все сериалы на PB.wtf

RePack

FAR CRY 5
  

Зеленые поместья / Green Mansions (Мэл Феррер) [1959 г., Приключения, драма, DVDRip-AVC, Профессиональный (двухголосый)] от ExKinoRay piratbit.org

Зеленые поместья через торрент piratbit.org

Размер: 2.2 GB | Добавлен: 3 года 7 мес. назад | Торрент скачан:8 раз
Скачать  

11-03-2017 04:39 Зеленые поместья Скачать торрент  

Зеленые поместья / Green Mansions
Год выпуска: 1959
Страна: США
Жанр: Приключения, драма
Продолжительность: 01:40:05
Перевод: Профессиональный (двухголосый)

Режиссер: Мэл Феррер

Бюджет: $3 000 000
Премьера в мире: 19 марта 1959

rating

В ролях: Одри Хепберн, Энтони Перкинс, Ли Дж. Кобб, Сессю Хаякава, Хенри Силва, Неимайя Персофф

Описание: Абель, сын убитого правительственного чиновника, убегает в джунгли. Там он встречается с воинственными индейцами и с прелестной девушкой…

Доп. информация: Профессиональный двухголосый (НТВ+)

Качество: DVDRip-AVC
Формат: MKV
Видео кодек: MPEG4
Аудио кодек: AC3
Видео: MPEG-4 AVC, 2700 Кбит/с, 718x428@1021x428, 25.000 кадров/сек
Аудио#1: Русский (AC3, 2 ch, 224 Кбит/с, 48 КГц)
Аудио#2: Английский (AC3, 2 ch, 224 Кбит/с, 48 КГц)
Релиз от:




raw [info]: 718x428p 64:45 @ 25/1 fps (cfr)
x264 [info]: using SAR=64/45
x264 [info]: using cpu capabilities: MMX2 SSE2Fast LZCNT
x264 [info]: profile High, level 4.1
x264 [info]: frame I:982 Avg QP:16.53 size: 71248
x264 [info]: frame P:29925 Avg QP:18.96 size: 28512
x264 [info]: frame B:119234 Avg QP:20.72 size: 9258
x264 [info]: consecutive B-frames: 1.2% 1.7% 4.3% 18.7% 15.3% 47.3% 7.3% 2.4% 1.0% 0.5% 0.3% 0.1% 0.0% 0.0% 0.0% 0.0% 0.1%
-----
Общее
Уникальный идентификатор : 188176502317757784181173072826235914426 (0x8D9179DF5AF91DAD8560F1E288C488BA)
Полное имя : E:\Green.Mansions.1959.DVDRip-AVC.ExKinoRay.mkv
Формат : Matroska
Версия формата : Version 2
Размер файла : 2,20 Гбайт
Продолжительность : 1 ч. 40 м.
Общий поток : 3150 Кбит/сек
Дата кодирования : UTC 2017-03-11 00:54:07
Программа кодирования : mkvmerge v7.8.0 ('River Man') 32bit built on Apr 3 2015 12:11:22
Библиотека кодирования : libebml v1.3.1 + libmatroska v1.4.2

Видео
Идентификатор : 1
Формат : AVC
Формат/Информация : Advanced Video Codec
Профиль формата : High@L4.1
Параметр CABAC формата : Да
Параметр ReFrames формата : 14 кадров
Идентификатор кодека : V_MPEG4/ISO/AVC
Продолжительность : 1 ч. 40 м.
Битрейт : 2700 Кбит/сек
Ширина : 718 пикселей
Высота : 428 пикселей
Соотношение сторон : 2,40:1
Режим частоты кадров : Постоянный
Частота кадров : 25,000 кадров/сек
Цветовое пространство : YUV
Субдискретизация насыщенности : 4:2:0
Битовая глубина : 8 бит
Тип развёртки : Прогрессивная
Бит/(Пиксели*Кадры) : 0.351
Размер потока : 1,85 Гбайт (84%)
Библиотека кодирования : x264 core 148 r2638 7599210
Настройки программы : cabac=1 / ref=14 / deblock=1:-2:-2 / analyse=0x3:0x133 / me=umh / subme=10 / psy=1 / psy_rd=1.05:0.15 / mixed_ref=1 / me_range=32 / chroma_me=1 / trellis=2 / 8x8dct=1 / cqm=0 / deadzone=21,11 / fast_pskip=0 / chroma_qp_offset=-3 / threads=4 / lookahead_threads=1 / sliced_threads=0 / nr=0 / decimate=0 / interlaced=0 / bluray_compat=0 / constrained_intra=0 / bframes=16 / b_pyramid=2 / b_adapt=2 / b_bias=0 / direct=3 / weightb=1 / open_gop=0 / weightp=2 / keyint=250 / keyint_min=25 / scenecut=40 / intra_refresh=0 / rc=2pass / mbtree=0 / bitrate=2700 / ratetol=1.0 / qcomp=0.60 / qpmin=0 / qpmax=69 / qpstep=4 / cplxblur=20.0 / qblur=0.5 / ip_ratio=1.40 / pb_ratio=1.30 / aq=1:1.00
Язык : English
Default : Да
Forced : Нет
Цветовой диапазон : Limited
Основные цвета : BT.601 NTSC
Характеристики трансфера : BT.601
Коэффициенты матрицы : BT.601

Аудио #1
Идентификатор : 2
Формат : AC-3
Формат/Информация : Audio Coding 3
Расширение режима : CM (complete main)
Параметр Endianness формата : Big
Идентификатор кодека : A_AC3
Продолжительность : 1 ч. 40 м.
Вид битрейта : Постоянный
Битрейт : 224 Кбит/сек
Каналы : 2 канала
Расположение каналов : Front: L R
Частота : 48,0 КГц
Частота кадров : 31,250 кадров/сек (1536 spf)
Метод сжатия : С потерями
Размер потока : 160 Мбайт (7%)
Язык : Russian
Default : Да
Forced : Нет

Аудио #2
Идентификатор : 3
Формат : AC-3
Формат/Информация : Audio Coding 3
Расширение режима : CM (complete main)
Параметр Endianness формата : Big
Идентификатор кодека : A_AC3
Продолжительность : 1 ч. 40 м.
Вид битрейта : Постоянный
Битрейт : 224 Кбит/сек
Каналы : 2 канала
Расположение каналов : Front: L R
Частота : 48,0 КГц
Частота кадров : 31,250 кадров/сек (1536 spf)
Метод сжатия : С потерями
Размер потока : 160 Мбайт (7%)
Язык : English
Default : Нет
Forced : Нет

piratbit.org



Скачать Зеленые поместья через торрент http://s16.radikal.ru/i191/1703/24/8a2e1592c7fa.jpg Скачать фильм Зеленые поместья через торрент бесплантно в хорошем качестве Описание: Абель, сын убитого правительственного чиновника, убегает в джунгли. Там он встречается с воинственными индейцами и с прелестной ... 10 10 2
Info! Золотая раздача, скачанное не засчитывается.
Торрент: Зарегистрирован [2017-03-11 04:39] · скачан: 8 раз
Статус: √ проверено
Размер: 2.2 GB
Как cкачать? Как скачать Зеленые поместья через торрент | qTorrent



Последний раз редактировалось: dumbia (2017-03-11 12:39), всего редактировалось 1 раз

28-11-2019 20:33  

Отключить всю рекламу на сайте

    Дорогой пользователь! Огромная просьба, поблагодарите релизера, оцените раздачу и оставьте свои комментарий, если Вы скачали Зеленые поместья через торрент бесплатно! Внесите свою лепту в развитие PiratBit!
    Комментировать посты могут только пользователи прошедшие не сложную регистрацию
    Показать сообщения:    

    Зеленые поместья через торрент
    Скачать бесплатно Зеленые поместья
    Зеленые поместья скачать торрент
    Зеленые поместья смотреть онлайн
    Cкачать фильм Зеленые поместья бесплатно
    Зеленые поместья скачать торрент в хорошем качестве
    Зеленые поместья смотреть онлайн бесплатно в хорошем качестве


    Вы не можете начинать темы
    Вы не можете отвечать на сообщения
    Вы не можете редактировать свои сообщения
    Вы не можете удалять свои сообщения
    Вы не можете голосовать в опросах
    Вы не можете прикреплять файлы к сообщениям
    Вы можете скачивать файлы