Лицензия

MVO

1

1 сезон

Лицензия

Лицензия

13

MVO

1 сезон

Deluxe Edition

pack

Рекомендуем

30

Repack

ВАЖНО

ВАЖНО

Ghostwire

RePack

jed

RePack

fifa19

RePack

RDR2

RePack

NEED FOR SPEED™ PAYBACK

RePack

Кинопоиск HD

 Острые козырьки 6 сезон

6 сезон

FAR CRY 6

RePack

Лицензия

MVO

1

1 сезон

1 сезон

Лицензия

  

Его время придет (Мажит Бегалин) [1957, СССР, биография, история, SATRip от AVP Studio]

Его время придет через торрент piratbit.org

Размер: 1.09 GB | Добавлен: 5 лет 6 мес. назад | Торрент скачан:2 раза
Смотреть онлайн Его время придет | Скачать   

13-03-2017 10:43 Его время придет Скачать торрент  

Его время придет
Страна: СССР
Производство: Ленфильм, Алма-Атинская студия

Жанр: биография, история
Год выпуска: 1957
Продолжительность: 01:29:50

Перевод: Не требуется
Cубтитры: нет
Оригинальная аудиодорожка: русский

Режиссер: Мажит Бегалин

В ролях:
Нурмухан Жантурин, Геннадий Карнович-Валуа, Владимир Честноков, Олег Лебедев (V), Камаси Умурзаков, Калыбек Куанышбаев, Шайза Ахметова, Шахан Мусин, Курманбек Жандарбеков, А. Мухамедьяров, Ахмед Шамиев, Шамши Тюменбаев, Геннадий Мичурин, Пётр Чернов, Константин Барташевич, Адриан Филиппов, Михаил Погоржельский, Георгий Черноволенко, Константин Адашевский, Алексей Кельберер, Павел Панков...
Об актёрах подробней

Описание:
О знаменитом просветителе XIX века - сыне казахского народа Чокане Валиханове, ученом-этнографе и известном путешественнике.

Источник: DVB
Качество видео: SATRip
Формат видео: AVI

Видео: 704x528 (4:3), 25 fps, XviD ~ 1536 kbps avg, 0.165 bit/pixel
Аудио: 48 kHz, Dolby Digital AC3 2.0, 192 kbps

Раздача от:
Общее
Полное имя : Ego.vremya.pridet.1957.SATRip_[New-team]_by_AVP_Studio.avi
Формат : AVI
Формат/Информация : Audio Video Interleave
Размер файла : 1,09 Гбайт
Продолжительность : 1 ч. 29 м.
Общий поток : 1738 Кбит/сек
Программа кодирования : VirtualDubMod 1.5.10.3 | www.virtualdub-fr.org || (build 2550/release)
Библиотека кодирования : VirtualDubMod build 2550/release

Видео
Идентификатор : 0
Формат : MPEG-4 Visual
Профиль формата : Advanced Simple@L5
Параметр BVOP формата : 1
Параметр QPel формата : Нет
Параметр GMC формата : Без точки перехода
Параметр матрицы формата : Выборочная
Идентификатор кодека : XVID
Идентификатор кодека/Подсказка : XviD
Продолжительность : 1 ч. 29 м.
Битрейт : 1536 Кбит/сек
Ширина : 704 пикселя
Высота : 528 пикселей
Соотношение сторон : 4:3
Частота кадров : 25,000 кадров/сек
Цветовое пространство : YUV
Субдискретизация насыщенности : 4:2:0
Битовая глубина : 8 бит
Тип развёртки : Прогрессивная
Метод сжатия : С потерями
Бит/(Пиксели*Кадры) : 0.165
Размер потока : 987 Мбайт (88%)
Библиотека кодирования : XviD 73

Аудио
Идентификатор : 1
Формат : AC-3
Формат/Информация : Audio Coding 3
Параметр Endianness формата : Big
Идентификатор кодека : 2000
Продолжительность : 1 ч. 29 м.
Вид битрейта : Постоянный
Битрейт : 192 Кбит/сек
Каналы : 2 канала
Расположение каналов : Front: L R
Частота : 48,0 КГц
Частота кадров : 31,250 кадров/сек (1536 spf)
Битовая глубина : 16 бит
Метод сжатия : С потерями
Размер потока : 123 Мбайт (11%)
Выравнивание : Разделение по промежуткам
Продолжительность промежутка : 40 мс. (1,00 видеокадр)
Время предзагрузки промежутка : 500 мс.
ServiceKind/String : Complete Main



Скачать Его время придет через торрент http://s019.radikal.ru/i614/1703/4b/43e9448b5e6d.png Скачать, смотреть онлайн Его время придет бесплантно в хорошем качестве Описание:О знаменитом просветителе XIX века - сыне казахского народа Чокане Валиханове, ученом-этнографе и известном путешественнике. ... 10 10 1
Info! Золотая раздача, скачанное не засчитывается.
Торрент: Зарегистрирован [2017-03-13 10:43] · скачан: 2 раз
Статус: √ проверено
Размер: 1.09 GB
Как cкачать? Как скачать Его время придет через торрент | UTorrent

% Раздел Тема Автор DL S | L
Кино СССР [ 1.09 GB ] Его время придет | | SATRip-AVC от AVP Studio AVP Studio Скачать
1 | 0
Кино СССР [ 761 MB ] Его время придет | | SATRip от AVP Studio AVP Studio Скачать
1 | 0

28-11-2019 20:33  

Отключить вcю реклaмy на сайте

    Дорогой пользователь! Огромная просьба, поблагодарите релизера, оцените раздачу и оставьте свои комментарий, если Вы скачали Его время придет через торрент бесплатно!!
    Комментировать посты могут только пользователи прошедшие не сложную регистрацию
    Показать сообщения:    


    Его время придет через торрент
    Скачать бесплатно Его время придет
    Его время придет скачать торрент
    Его время придет смотреть онлайн
    Cкачать фильм Его время придет бесплатно
    Его время придет скачать торрент в хорошем качестве
    Его время придет смотреть онлайн бесплатно в хорошем качестве
    Вы не можете начинать темы
    Вы не можете отвечать на сообщения
    Вы не можете редактировать свои сообщения
    Вы не можете удалять свои сообщения
    Вы не можете голосовать в опросах
    Вы не можете прикреплять файлы к сообщениям
    Вы можете скачивать файлы