Лицензия

MVO

1

1 сезон

Лицензия

Лицензия

13

MVO

1 сезон

Deluxe Edition

pack

Рекомендуем

30

Repack

ВАЖНО

ВАЖНО

Ghostwire

RePack

jed

RePack

fifa19

RePack

RDR2

RePack

NEED FOR SPEED™ PAYBACK

RePack

Кинопоиск HD

 Острые козырьки 6 сезон

6 сезон

FAR CRY 6

RePack

Лицензия

MVO

1

1 сезон

1 сезон

Лицензия

  

Его время придет (Мажит Бегалин) [1957, СССР, биография, история, SATRip-AVC от AVP Studio]

Его время придет через торрент piratbit.org

Размер: 1.09 GB | Добавлен: 5 лет 6 мес. назад | Торрент скачан:10 раз
Смотреть онлайн Его время придет | Скачать   

13-03-2017 10:44 Его время придет Скачать торрент  

Его время придет
Страна: СССР
Производство: Ленфильм, Алма-Атинская студия

Жанр: биография, история
Год выпуска: 1957
Продолжительность: 01:29:50

Перевод: Не требуется
Cубтитры: нет
Оригинальная аудиодорожка: русский

Режиссер: Мажит Бегалин

В ролях:
Нурмухан Жантурин, Геннадий Карнович-Валуа, Владимир Честноков, Олег Лебедев (V), Камаси Умурзаков, Калыбек Куанышбаев, Шайза Ахметова, Шахан Мусин, Курманбек Жандарбеков, А. Мухамедьяров, Ахмед Шамиев, Шамши Тюменбаев, Геннадий Мичурин, Пётр Чернов, Константин Барташевич, Адриан Филиппов, Михаил Погоржельский, Георгий Черноволенко, Константин Адашевский, Алексей Кельберер, Павел Панков...
Об актёрах подробней

Описание:
О знаменитом просветителе XIX века - сыне казахского народа Чокане Валиханове, ученом-этнографе и известном путешественнике.

Источник: DVB
Качество видео: SATRip-AVC
Формат видео: MKV

Видео: 712->766x574 (4:3), 25 fps, H264 ~ 1541 kbps avg, 0.151 bit/pixel
Аудио: 48 kHz, Dolby Digital AC3 2.0, 192 kbps

Раздача от:
Общее
Полное имя : Ego.vremya.pridet.1957.SATRip-AVC_[New-team]_by_AVP_Studio.mkv
Формат : Matroska
Версия формата : Version 2
Размер файла : 1,09 Гбайт
Продолжительность : 1 ч. 29 м.
Общий поток : 1735 Кбит/сек
Дата кодирования : UTC 2017-03-08 03:00:29
Программа кодирования : mkvmerge v6.1.0 ('Old Devil') built on Mar 4 2013 09:10:42
Библиотека кодирования : libebml v1.3.0 + libmatroska v1.4.0

Видео
Идентификатор : 1
Формат : AVC
Формат/Информация : Advanced Video Codec
Профиль формата : High@L4.1
Параметр CABAC формата : Да
Параметр ReFrames формата : 10 кадров
Идентификатор кодека : V_MPEG4/ISO/AVC
Продолжительность : 1 ч. 29 м.
Битрейт : 1541 Кбит/сек
Ширина : 712 пикселей
Высота : 574 пикселя
Соотношение сторон : 4:3
Режим частоты кадров : Постоянный
Частота кадров : 25,000 кадров/сек
Цветовое пространство : YUV
Субдискретизация насыщенности : 4:2:0
Битовая глубина : 8 бит
Тип развёртки : Прогрессивная
Бит/(Пиксели*Кадры) : 0.151
Размер потока : 969 Мбайт (87%)
Библиотека кодирования : x264 core 148 r2597 e86f3a1
Настройки программы : cabac=1 / ref=10 / deblock=1:-2:-1 / analyse=0x3:0x113 / me=umh / subme=10 / psy=1 / psy_rd=1.00:0.00 / mixed_ref=1 / me_range=32 / chroma_me=1 / trellis=2 / 8x8dct=1 / cqm=0 / deadzone=21,11 / fast_pskip=1 / chroma_qp_offset=-2 / threads=6 / lookahead_threads=1 / sliced_threads=0 / nr=0 / decimate=0 / interlaced=0 / bluray_compat=0 / constrained_intra=0 / bframes=8 / b_pyramid=2 / b_adapt=2 / b_bias=0 / direct=3 / weightb=1 / open_gop=0 / weightp=2 / keyint=250 / keyint_min=25 / scenecut=40 / intra_refresh=0 / rc=2pass / mbtree=0 / bitrate=1541 / ratetol=1.0 / qcomp=0.60 / qpmin=0 / qpmax=69 / qpstep=4 / cplxblur=20.0 / qblur=0.5 / ip_ratio=1.40 / pb_ratio=1.30 / aq=1:1.00
Default : Да
Forced : Нет

Аудио
Идентификатор : 2
Формат : AC-3
Формат/Информация : Audio Coding 3
Параметр Endianness формата : Big
Идентификатор кодека : A_AC3
Продолжительность : 1 ч. 29 м.
Вид битрейта : Постоянный
Битрейт : 192 Кбит/сек
Каналы : 2 канала
Расположение каналов : Front: L R
Частота : 48,0 КГц
Частота кадров : 31,250 кадров/сек (1536 spf)
Битовая глубина : 16 бит
Метод сжатия : С потерями
Размер потока : 123 Мбайт (11%)
ServiceKind/String : Complete Main
Default : Да
Forced : Нет



Скачать Его время придет через торрент http://s019.radikal.ru/i614/1703/4b/43e9448b5e6d.png Скачать, смотреть онлайн Его время придет бесплантно в хорошем качестве Описание:О знаменитом просветителе XIX века - сыне казахского народа Чокане Валиханове, ученом-этнографе и известном путешественнике. ... 10 10 1
Info! Золотая раздача, скачанное не засчитывается.
Торрент: Зарегистрирован [2017-03-13 10:44] · скачан: 10 раз
Статус: √ проверено
Размер: 1.09 GB
Как cкачать? Как скачать Его время придет через торрент | UTorrent

% Раздел Тема Автор DL S | L
Кино СССР [ 761 MB ] Его время придет | | SATRip от AVP Studio AVP Studio Скачать
1 | 0
Кино СССР [ 1.09 GB ] Его время придет | | SATRip от AVP Studio AVP Studio Скачать
1 | 0

28-11-2019 20:33  

Отключить вcю реклaмy на сайте

    Дорогой пользователь! Огромная просьба, поблагодарите релизера, оцените раздачу и оставьте свои комментарий, если Вы скачали Его время придет через торрент бесплатно!!
    Комментировать посты могут только пользователи прошедшие не сложную регистрацию
    Показать сообщения:    


    Его время придет через торрент
    Скачать бесплатно Его время придет
    Его время придет скачать торрент
    Его время придет смотреть онлайн
    Cкачать фильм Его время придет бесплатно
    Его время придет скачать торрент в хорошем качестве
    Его время придет смотреть онлайн бесплатно в хорошем качестве
    Вы не можете начинать темы
    Вы не можете отвечать на сообщения
    Вы не можете редактировать свои сообщения
    Вы не можете удалять свои сообщения
    Вы не можете голосовать в опросах
    Вы не можете прикреплять файлы к сообщениям
    Вы можете скачивать файлы