1 сезон

3 сезон

iTunes

1

iTunes

DUB Netflix

iTunes

13

1 сезон

RePack

30

Deluxe

pack

Легкие деньги

ВАЖНО

ИГРА 18+

pack

RePack

MK11

RePack

jed

RePack

fifa19

RePack

RDR2

RePack

NEED FOR SPEED™ PAYBACK

4 сезон

9 сезон

Бесстыжие 9 сезон

Все сериалы

все сериалы на PB.wtf

RePack

FAR CRY 5

Anonymous, добрый вечер, мы не успеваем до 1 числа собрать деньги на оплату серверов, помогите нам пожалуйста в это трудное время. В качестве благодарности мы отключим Вам всю рекламу на сайте (укажите свой ник в строку Ваше имя)!

×
  
Magnet ссылка

Под покровом ночи / Nocturnal Animals (Том Форд / Tom Ford) [2016, США, триллер, драма, BDRip-AVC] Dub [Лицензия], AVO (Есарев) от ExKinoRay piratbit.org

Под покровом ночи через торрент piratbit.org

Размер: 2.92 GB | Добавлен: 4 года 3 мес. назад | Торрент скачан:388 раз
Скачать  

14-03-2017 05:26 Под покровом ночи Скачать торрент  

Информация о фильме
Название: Под покровом ночи
Оригинальное название: Nocturnal Animals
Год выпуска: 2016
Страна: США
Студия: Fade to Black Productions, Focus Features, Universal Pictures
Жанр: Триллер, драма
Продолжительность: 01:56:32
Перевод: Дублированный | BD CEE ,
Авторский перевод Дмитрия Есарева (доступен благодаря mihey10)
Субтитры: Русские (форсированные, полные), английские (полные, SDH)
Режиссер: Том Форд
В ролях: Эми Адамс, Джейк Джилленхол, Майкл Шеннон, Аарон Тейлор-Джонсон, Айла Фишер, Элли Бамбер, Арми Хаммер, Карл Глусман, Роберт Арамайо, Лора Линни

Описание: У Сьюзен роскошная жизнь в Лос-Анджелесе, прекрасный муж и собственная галерея. Но однажды она получает неожиданную посылку от бывшего супруга — он хотел бы встретиться, но сначала просит прочитать его новый роман. Сьюзен не подозревает, что как только она откроет рукопись, она вернется в прошлое, которое считала надежно укрытым под покровом ночи.


rating




Файл
Качество: BDRip (AVC)
Видео: MPEG-4 AVC, 1024x422 (2.40:1), 23.976 fps, ~1875 kbps avg, 0.166 bit/pixel
Аудио №1: AC3 / 5.1 / 48 kHz / 448 kbps / - дубляж
Аудио №2: AC3 / 5.1 / 48 kHz / 448 kbps / - Есарев
Аудио №3: AC3 / 5.1 / 48 kHz / 448 kbps / - украинский
Аудио №4: AC3 / 5.1 / 48 kHz / 448 kbps / - английский
General
Unique ID : 215922213541288839269935720014945095353 (0xA2711B0D4DD8F2F48A88CF0F867A8EB9)
Complete name : D:\Nocturnal.Animals.2016.2xRus.BDRip.AVC.ExKinoRay.mkv
Format : Matroska
Format version : Version 2
File size : 2.92 GiB
Duration : 1 h 56 min
Overall bit rate : 3 586 kb/s
Movie name : Nocturnal Animals 2016 from ExKinoRay
Encoded date : UTC 2017-03-14 04:04:42
Writing application : mkvmerge v5.8.0 ('No Sleep / Pillow') built on Sep 2 2012 15:37:04
Writing library : libebml v1.2.3 + libmatroska v1.3.0

Video
ID : 1
Format : AVC
Format/Info : Advanced Video Codec
Format profile : High@L4.1
Format settings, CABAC : Yes
Format settings, ReFrames : 12 frames
Codec ID : V_MPEG4/ISO/AVC
Duration : 1 h 56 min
Bit rate : 1 723 kb/s
Nominal bit rate : 1 875 kb/s
Width : 1 024 pixels
Height : 422 pixels
Display aspect ratio : 2.40:1
Frame rate mode : Constant
Frame rate : 23.976 (24000/1001) FPS
Color space : YUV
Chroma subsampling : 4:2:0
Bit depth : 8 bits
Scan type : Progressive
Bits/(Pixel*Frame) : 0.166
Stream size : 1.40 GiB (48%)
Title : Enigma
Writing library : x264 core 144 r2525 40bb568
Encoding settings : cabac=1 / ref=12 / deblock=1:-2:-2 / analyse=0x3:0x113 / me=umh / subme=10 / psy=1 / psy_rd=1.00:0.05 / mixed_ref=1 / me_range=32 / chroma_me=1 / trellis=2 / 8x8dct=1 / cqm=0 / deadzone=21,11 / fast_pskip=1 / chroma_qp_offset=-3 / threads=12 / lookahead_threads=3 / sliced_threads=0 / nr=0 / decimate=1 / interlaced=0 / bluray_compat=0 / constrained_intra=0 / bframes=10 / b_pyramid=2 / b_adapt=2 / b_bias=0 / direct=3 / weightb=1 / open_gop=0 / weightp=2 / keyint=240 / keyint_min=23 / scenecut=40 / intra_refresh=0 / rc_lookahead=40 / rc=2pass / mbtree=0 / bitrate=1875 / ratetol=1.0 / qcomp=0.60 / qpmin=0 / qpmax=51 / qpstep=4 / cplxblur=20.0 / qblur=0.5 / vbv_maxrate=50000 / vbv_bufsize=62500 / nal_hrd=none / filler=0 / ip_ratio=1.40 / pb_ratio=1.30 / aq=1:1.00
Language : English
Default : Yes
Forced : No
Color range : Limited
Color primaries : BT.709
Transfer characteristics : BT.709
Matrix coefficients : BT.709

Audio #1
ID : 2
Format : AC-3
Format/Info : Audio Coding 3
Mode extension : CM (complete main)
Format settings, Endianness : Big
Codec ID : A_AC3
Duration : 1 h 56 min
Bit rate mode : Constant
Bit rate : 448 kb/s
Channel(s) : 6 channels
Channel positions : Front: L C R, Side: L R, LFE
Sampling rate : 48.0 kHz
Frame rate : 31.250 FPS (1536 spf)
Bit depth : 16 bits
Compression mode : Lossy
Stream size : 373 MiB (12%)
Title : Dub (Лицензия)
Language : Russian
Default : Yes
Forced : No

Audio #2
ID : 3
Format : AC-3
Format/Info : Audio Coding 3
Mode extension : CM (complete main)
Format settings, Endianness : Big
Codec ID : A_AC3
Duration : 1 h 56 min
Bit rate mode : Constant
Bit rate : 448 kb/s
Channel(s) : 6 channels
Channel positions : Front: L C R, Side: L R, LFE
Sampling rate : 48.0 kHz
Frame rate : 31.250 FPS (1536 spf)
Bit depth : 16 bits
Compression mode : Lossy
Stream size : 373 MiB (12%)
Title : AVO (Esarev)
Default : No
Forced : No

Audio #3
ID : 4
Format : AC-3
Format/Info : Audio Coding 3
Mode extension : CM (complete main)
Format settings, Endianness : Big
Codec ID : A_AC3
Duration : 1 h 56 min
Bit rate mode : Constant
Bit rate : 448 kb/s
Channel(s) : 6 channels
Channel positions : Front: L C R, Side: L R, LFE
Sampling rate : 48.0 kHz
Frame rate : 31.250 FPS (1536 spf)
Bit depth : 16 bits
Compression mode : Lossy
Stream size : 373 MiB (12%)
Title : MVO (студия Цікава ідея)
Language : Ukrainian
Default : No
Forced : No

Audio #4
ID : 5
Format : AC-3
Format/Info : Audio Coding 3
Mode extension : CM (complete main)
Format settings, Endianness : Big
Codec ID : A_AC3
Duration : 1 h 56 min
Bit rate mode : Constant
Bit rate : 448 kb/s
Channel(s) : 6 channels
Channel positions : Front: L C R, Side: L R, LFE
Sampling rate : 48.0 kHz
Frame rate : 31.250 FPS (1536 spf)
Bit depth : 16 bits
Compression mode : Lossy
Stream size : 373 MiB (12%)
Language : English
Default : No
Forced : No

Text #1
ID : 6
Format : UTF-8
Codec ID : S_TEXT/UTF8
Codec ID/Info : UTF-8 Plain Text
Title : Forced
Language : Russian
Default : Yes
Forced : No

Text #2
ID : 7
Format : UTF-8
Codec ID : S_TEXT/UTF8
Codec ID/Info : UTF-8 Plain Text
Title : Full
Language : Russian
Default : No
Forced : No

Text #3
ID : 8
Format : UTF-8
Codec ID : S_TEXT/UTF8
Codec ID/Info : UTF-8 Plain Text
Title : Notabenoid
Language : Russian
Default : No
Forced : No

Text #4
ID : 9
Format : UTF-8
Codec ID : S_TEXT/UTF8
Codec ID/Info : UTF-8 Plain Text
Title : Full
Language : English
Default : No
Forced : No

Text #5
ID : 10
Format : UTF-8
Codec ID : S_TEXT/UTF8
Codec ID/Info : UTF-8 Plain Text
Language : English
Default : No
Forced : No

Menu
00:00:00.000 : en:Chapter 01
00:05:25.867 : en:Chapter 02
00:09:35.741 : en:Chapter 03
00:13:32.853 : en:Chapter 04
00:19:33.046 : en:Chapter 05
00:29:48.912 : en:Chapter 06
00:34:29.901 : en:Chapter 07
00:40:00.731 : en:Chapter 08
00:45:11.333 : en:Chapter 09
00:52:55.422 : en:Chapter 10
00:59:37.407 : en:Chapter 11
01:04:15.768 : en:Chapter 12
01:12:49.615 : en:Chapter 13
01:20:03.215 : en:Chapter 14
01:25:11.898 : en:Chapter 15
01:31:53.299 : en:Chapter 16
01:35:23.676 : en:Chapter 17
01:40:48.667 : en:Chapter 18
01:45:04.589 : en:Chapter 19
01:49:45.662 : en:Chapter 20
Релиз от:

Автор релиза: piratbit.org



Скачать Под покровом ночи через торрент http://i89.fastpic.ru/big/2017/0227/2a/cdb6f8345f6f7d82cf793442a233d72a.png Скачать фильм Под покровом ночи через торрент бесплантно в хорошем качестве Описание: У Сьюзен роскошная жизнь в Лос-Анджелесе, прекрасный муж и собственная галерея. Но однажды она получает неожиданную посылку от ... 8.3 10 4
Info! Золотая раздача, скачанное не засчитывается.
Торрент: Зарегистрирован [2017-03-14 05:26] · скачан: 388 раз
Статус: √ проверено
Размер: 2.92 GB
Как cкачать? Как скачать Под покровом ночи через торрент | UTorrent

% Раздел Тема Автор DL S | L
Фильмы (Blu-ray, BD-Remux, HDDVD) [ 31.02 GB ] Под покровом ночи / Ночные животные / Nocturnal Animals [2016 BDRemux 1080p] от ExKinoRay / Russian Mafia Скачать
1 | 0

28-11-2019 20:33  

Отключить всю рекламу на сайте

    Дорогой пользователь! Огромная просьба, поблагодарите релизера, оцените раздачу и оставьте свои комментарий, если Вы скачали Под покровом ночи через торрент бесплатно! Внесите свою лепту в развитие PiratBit!
    Комментировать посты могут только пользователи прошедшие не сложную регистрацию
    Показать сообщения:    

    Под покровом ночи через торрент
    Скачать бесплатно Под покровом ночи
    Под покровом ночи скачать торрент
    Под покровом ночи смотреть онлайн
    Cкачать фильм Под покровом ночи бесплатно
    Под покровом ночи скачать торрент в хорошем качестве
    Под покровом ночи смотреть онлайн бесплатно в хорошем качестве


    Вы не можете начинать темы
    Вы не можете отвечать на сообщения
    Вы не можете редактировать свои сообщения
    Вы не можете удалять свои сообщения
    Вы не можете голосовать в опросах
    Вы не можете прикреплять файлы к сообщениям
    Вы можете скачивать файлы