1 сезон

3 сезон

iTunes

1

iTunes

DUB Netflix

iTunes

13

1 сезон

RePack

30

Deluxe

pack

Легкие деньги

ВАЖНО

ИГРА 18+

pack

RePack

MK11

RePack

jed

RePack

fifa19

RePack

RDR2

RePack

NEED FOR SPEED™ PAYBACK

4 сезон

9 сезон

Бесстыжие 9 сезон

Все сериалы

все сериалы на PB.wtf

RePack

FAR CRY 5

Anonymous, доброй ночи, мы не успеваем до 1 числа собрать деньги на оплату серверов, помогите нам пожалуйста в это трудное время. В качестве благодарности мы отключим Вам всю рекламу на сайте (укажите свой ник в строку Ваше имя)!

×
  
Magnet ссылка

Преступник / Criminal (Ариэль Вромен) [2016 г., фантастика, боевик, триллер, BDRip-AVC] Дубляж - [Лицензия], AVO (Есарев) от ExKinoRay piratbit.org

Преступник через торрент piratbit.org

Размер: 2.53 GB | Добавлен: 4 года 3 мес. назад | Торрент скачан:606 раз
Скачать  

15-03-2017 03:57 Преступник Скачать торрент  

Информация о фильме
Название: Преступник
Оригинальное название: Criminal
Год выпуска: 2016
Страна: Великобритания, США
Студия: BenderSpink, Campbell Grobman Films, Lionsgate
Жанр: Фантастика, боевик, триллер, драма, криминал, детектив
Продолжительность: 01:53:34
Перевод: Дублированный | Blu-ray RUS,
Авторский перевод Дмитрия Есарева
Субтитры: Русские, английские
Режиссер: Ариэль Вромен
В ролях: Кевин Костнер, Гэри Олдман, Томми Ли Джонс, Райан Рейнольдс, Элис Ив, Галь Гадот, Хорди Молья, Майкл Питт, Амори Ноласко, Антье Трауэ, Скотт Эдкинс, Лара Дэкаро, Фредди Бош, Эммануэль Имани, Гарри Хэппл, Даг Кокл, Колин Сэлмон, Стив Николсон

Описание: В последней отчаянной попытке остановить катастрофу мирового масштаба генетики осуществляют невероятную операцию по вживлению воспоминаний и умений погибшего оперативника ЦРУ в тело опасного заключенного с надеждой, что тот доведет до конца прерванную миссию агента.


rating
Файл
Качество: BDRip (AVC)
Видео: MPEG-4 AVC, 1024x430 (2.40:1), 23.976 fps, ~1850 kbps avg, 0.175 bit/pixel
Аудио: Аудио: 48 kHz, AC3 Dolby Digital, 3/2 (L,C,R,l,r) + LFE ch, ~448 kbps Дублированный
Аудио: Аудио: 48 kHz, AC3 Dolby Digital, 3/2 (L,C,R,l,r) + LFE ch, ~448 kbps Авторский перевод Есарева
Аудио: Аудио: 48 kHz, AC3 Dolby Digital, 3/2 (L,C,R,l,r) + LFE ch, ~448 kbps английский
General
Unique ID : 178498814927060958754656847046841761420 (0x86499F0B967BCDC684AC942C260C7E8C)
Complete name : D:\Prestupnik.2016.BDRip.AVC.ExKinoRay.mkv
Format : Matroska
Format version : Version 2
File size : 2.53 GiB
Duration : 1 h 53 min
Overall bit rate : 3 195 kb/s
Movie name : Criminal (2016) from ExKinoRay
Encoded date : UTC 2017-03-15 03:03:22
Writing application : mkvmerge v5.8.0 ('No Sleep / Pillow') built on Sep 2 2012 15:37:04
Writing library : libebml v1.2.3 + libmatroska v1.3.0

Video
ID : 1
Format : AVC
Format/Info : Advanced Video Codec
Format profile : High@L4.1
Format settings, CABAC : Yes
Format settings, ReFrames : 12 frames
Codec ID : V_MPEG4/ISO/AVC
Duration : 1 h 53 min
Bit rate : 1 850 kb/s
Width : 1 024 pixels
Height : 430 pixels
Display aspect ratio : 2.40:1
Frame rate mode : Constant
Frame rate : 23.976 (24000/1001) FPS
Color space : YUV
Chroma subsampling : 4:2:0
Bit depth : 8 bits
Scan type : Progressive
Bits/(Pixel*Frame) : 0.175
Stream size : 1.42 GiB (56%)
Title : Enigma
Writing library : x264 core 148 r2638 7599210
Encoding settings : cabac=1 / ref=12 / deblock=1:-2:-2 / analyse=0x3:0x133 / me=umh / subme=10 / psy=1 / psy_rd=1.05:0.00 / mixed_ref=1 / me_range=32 / chroma_me=1 / trellis=2 / 8x8dct=1 / cqm=0 / deadzone=21,11 / fast_pskip=0 / chroma_qp_offset=-2 / threads=12 / lookahead_threads=3 / sliced_threads=0 / nr=0 / decimate=0 / interlaced=0 / bluray_compat=0 / constrained_intra=0 / bframes=11 / b_pyramid=2 / b_adapt=2 / b_bias=0 / direct=3 / weightb=1 / open_gop=0 / weightp=2 / keyint=240 / keyint_min=23 / scenecut=40 / intra_refresh=0 / rc_lookahead=40 / rc=2pass / mbtree=0 / bitrate=1850 / ratetol=1.0 / qcomp=0.60 / qpmin=0 / qpmax=51 / qpstep=4 / cplxblur=20.0 / qblur=0.5 / vbv_maxrate=50000 / vbv_bufsize=62500 / nal_hrd=none / filler=0 / ip_ratio=1.40 / pb_ratio=1.30 / aq=1:1.00
Default : Yes
Forced : No

Audio #1
ID : 2
Format : AC-3
Format/Info : Audio Coding 3
Mode extension : CM (complete main)
Format settings, Endianness : Big
Codec ID : A_AC3
Duration : 1 h 53 min
Bit rate mode : Constant
Bit rate : 448 kb/s
Channel(s) : 6 channels
Channel positions : Front: L C R, Side: L R, LFE
Sampling rate : 48.0 kHz
Frame rate : 31.250 FPS (1536 spf)
Bit depth : 16 bits
Compression mode : Lossy
Stream size : 364 MiB (14%)
Title : Dub (Blu-ray RUS)
Language : Russian
Default : Yes
Forced : No

Audio #2
ID : 3
Format : AC-3
Format/Info : Audio Coding 3
Mode extension : CM (complete main)
Format settings, Endianness : Big
Codec ID : A_AC3
Duration : 1 h 53 min
Bit rate mode : Constant
Bit rate : 448 kb/s
Channel(s) : 6 channels
Channel positions : Front: L C R, Side: L R, LFE
Sampling rate : 48.0 kHz
Frame rate : 31.250 FPS (1536 spf)
Bit depth : 16 bits
Compression mode : Lossy
Stream size : 364 MiB (14%)
Title : AVO (Esarev)
Language : Russian
Default : No
Forced : No

Audio #3
ID : 4
Format : AC-3
Format/Info : Audio Coding 3
Mode extension : CM (complete main)
Format settings, Endianness : Big
Codec ID : A_AC3
Duration : 1 h 53 min
Bit rate mode : Constant
Bit rate : 448 kb/s
Channel(s) : 6 channels
Channel positions : Front: L C R, Side: L R, LFE
Sampling rate : 48.0 kHz
Frame rate : 31.250 FPS (1536 spf)
Bit depth : 16 bits
Compression mode : Lossy
Stream size : 364 MiB (14%)
Title : Original
Language : English
Default : No
Forced : No

Text #1
ID : 5
Format : UTF-8
Codec ID : S_TEXT/UTF8
Codec ID/Info : UTF-8 Plain Text
Title : Full
Language : Russian
Default : No
Forced : No

Text #2
ID : 6
Format : UTF-8
Codec ID : S_TEXT/UTF8
Codec ID/Info : UTF-8 Plain Text
Title : Full
Language : English
Default : No
Forced : No

Text #3
ID : 7
Format : UTF-8
Codec ID : S_TEXT/UTF8
Codec ID/Info : UTF-8 Plain Text
Title : SDH
Language : English
Default : No
Forced : No

Menu
00:00:00.000 : :(01)00:00:00:000
00:10:41.264 : :(02)00:10:41:264
00:15:32.264 : :(03)00:15:32:264
00:23:45.339 : :(04)00:23:45:339
00:30:56.561 : :(05)00:30:56:561
00:36:01.367 : :(06)00:36:01:367
00:45:36.315 : :(07)00:45:36:315
00:48:48.507 : :(08)00:48:48:507
00:54:51.454 : :(09)00:54:51:454
01:01:46.244 : :(10)01:01:46:244
01:08:32.608 : :(11)01:08:32:608
01:16:11.608 : :(12)01:16:11:608
01:22:20.143 : :(13)01:22:20:143
01:29:52.011 : :(14)01:29:52:011
01:36:46.091 : :(15)01:36:46:091
01:42:08.497 : :(16)01:42:08:497
01:53:34.599 : :(17)01:53:34:599
Релиз от:

Автор релиза:

piratbit.org



Скачать Преступник через торрент http://s019.radikal.ru/i605/1607/27/87be4532c37d.jpg Скачать фильм Преступник через торрент бесплантно в хорошем качестве Описание: В последней отчаянной попытке остановить катастрофу мирового масштаба генетики осуществляют невероятную операцию по вживлению ... 9.7 10 11
Info! Золотая раздача, скачанное не засчитывается.
Торрент: Зарегистрирован [2017-03-15 03:57] · скачан: 606 раз
Статус: √ проверено
Размер: 2.53 GB
Как cкачать? Как скачать Преступник через торрент | UTorrent

% Раздел Тема Автор DL S | L
Фильмы (Blu-ray, BD-Remux, HDDVD) [ 28.33 GB ] Преступник / Criminal [2016 BDRemux 1080p] от ExKinoRay / Russian Mafia Скачать
1 | 0

28-11-2019 20:33  

Отключить всю рекламу на сайте

15-03-2017 19:43 Преступник Скачать торрент  

ху....ня............)))piratbit.org



20-03-2017 07:10 Преступник Скачать торрент  

мне понравился. автору спс!!! piratbit.org



    Дорогой пользователь! Огромная просьба, поблагодарите релизера, оцените раздачу и оставьте свои комментарий, если Вы скачали Преступник через торрент бесплатно! Внесите свою лепту в развитие PiratBit!
    Комментировать посты могут только пользователи прошедшие не сложную регистрацию
    Показать сообщения:    

    Преступник через торрент
    Скачать бесплатно Преступник
    Преступник скачать торрент
    Преступник смотреть онлайн
    Cкачать фильм Преступник бесплатно
    Преступник скачать торрент в хорошем качестве
    Преступник смотреть онлайн бесплатно в хорошем качестве


    Вы не можете начинать темы
    Вы не можете отвечать на сообщения
    Вы не можете редактировать свои сообщения
    Вы не можете удалять свои сообщения
    Вы не можете голосовать в опросах
    Вы не можете прикреплять файлы к сообщениям
    Вы можете скачивать файлы