1 сезон

3 сезон

iTunes

1

iTunes

DUB Netflix

iTunes

13

1 сезон

RePack

30

Deluxe

pack

Легкие деньги

ВАЖНО

ИГРА 18+

pack

RePack

MK11

RePack

jed

RePack

fifa19

RePack

RDR2

RePack

NEED FOR SPEED™ PAYBACK

4 сезон

9 сезон

Бесстыжие 9 сезон

Все сериалы

все сериалы на PB.wtf

RePack

FAR CRY 5

Anonymous, доброй ночи, мы не успеваем до 1 числа собрать деньги на оплату серверов, помогите нам пожалуйста в это трудное время. В качестве благодарности мы отключим Вам всю рекламу на сайте (укажите свой ник в строку Ваше имя)!

×
  
Magnet ссылка

Лев / Lion (Гарт Дэвис) [2016, драма, HDRip-AVC] [MVO] Лицензия от ExKinoRay piratbit.org

Лев через торрент piratbit.org

Размер: 2.04 GB | Добавлен: 4 года 1 мес. назад | Торрент скачан:471 раз
Скачать  

16-03-2017 04:08 Лев Скачать торрент  

Информация о фильме
Название: Лев
Оригинальное название: Lion
Год выхода: 2016
Страна: США, Австралия, Великобритания
Студия: See-Saw Films, Sunstar Entertainment, The Weinstein Company LLC
Жанр: Драма
Продолжительность: 01:58:32
Перевод: Профессиональный многоголосый (закадровый) | Лицензия
Субтитры: Русские, английские
Режиссер: Гарт Дэвис
В ролях: Дев Патель, Николь Кидман, Руни Мара, Дэвид Уэнэм, Санни Павар, Абхишек Бхарате, Приянка Бозе, Кхуши Соланки, Шанкар Нисоде, Танништа Чаттерджи

Описание: Мальчик из трущоб, Сару, потерялся в возрасте 5 лет. Ему удалось выжить и найти новый дом в Австралии. 25 лет спустя он чудом вернулся в родной дом и встретился с матерью.

rating

Файл
Формат: MKV
Качество: HDRip (AVC)
Видео: MPEG-4 AVC, 1024x426 (2.40:1), 23.976 fps, ~1562 kbps avg, 0.149 bit/pixel
Аудио №1: AC3 / 5.1 / 48 kHz / 448 kbps / - русский
Аудио №2: AC3 / 5.1 / 48 kHz / 448 kbps / - английский
General
Unique ID : 188113419113590613406565449893552840608 (0x8D8553A160F04ED2821009846F37DFA0)
Complete name : D:\Lion.2016.MVO.HDRip.AVC.ExKinoRay.mkv
Format : Matroska
Format version : Version 2
File size : 2.04 GiB
Duration : 1 h 58 min
Overall bit rate : 2 460 kb/s
Movie name : Lion (2016) from ExKinoRay
Encoded date : UTC 2017-05-18 11:09:51
Writing application : mkvmerge v5.8.0 ('No Sleep / Pillow') built on Sep 2 2012 15:37:04
Writing library : libebml v1.2.3 + libmatroska v1.3.0
Cover : Yes
Attachments : cover.jpg

Video
ID : 1
Format : AVC
Format/Info : Advanced Video Codec
Format profile : High@L4.1
Format settings, CABAC : Yes
Format settings, ReFrames : 11 frames
Codec ID : V_MPEG4/ISO/AVC
Duration : 1 h 58 min
Bit rate : 1 562 kb/s
Width : 1 024 pixels
Height : 426 pixels
Display aspect ratio : 2.40:1
Frame rate mode : Constant
Frame rate : 23.976 (24000/1001) FPS
Color space : YUV
Chroma subsampling : 4:2:0
Bit depth : 8 bits
Scan type : Progressive
Bits/(Pixel*Frame) : 0.149
Stream size : 1.25 GiB (62%)
Title : Enigma
Writing library : x264 core 144 r2525 40bb568
Encoding settings : cabac=1 / ref=11 / deblock=1:-2:-2 / analyse=0x3:0x113 / me=umh / subme=10 / psy=1 / psy_rd=1.00:0.05 / mixed_ref=1 / me_range=32 / chroma_me=1 / trellis=2 / 8x8dct=1 / cqm=0 / deadzone=21,11 / fast_pskip=1 / chroma_qp_offset=-3 / threads=12 / lookahead_threads=3 / sliced_threads=0 / nr=0 / decimate=1 / interlaced=0 / bluray_compat=0 / constrained_intra=0 / bframes=12 / b_pyramid=2 / b_adapt=2 / b_bias=0 / direct=3 / weightb=1 / open_gop=0 / weightp=2 / keyint=240 / keyint_min=23 / scenecut=40 / intra_refresh=0 / rc_lookahead=40 / rc=2pass / mbtree=0 / bitrate=1562 / ratetol=1.0 / qcomp=0.60 / qpmin=0 / qpmax=51 / qpstep=4 / cplxblur=20.0 / qblur=0.5 / vbv_maxrate=50000 / vbv_bufsize=62500 / nal_hrd=none / filler=0 / ip_ratio=1.40 / pb_ratio=1.30 / aq=1:1.00
Language : English
Default : Yes
Forced : No
Color range : Limited
Color primaries : BT.709
Transfer characteristics : BT.709
Matrix coefficients : BT.709

Audio #1
ID : 2
Format : AC-3
Format/Info : Audio Coding 3
Mode extension : CM (complete main)
Format settings, Endianness : Big
Codec ID : A_AC3
Duration : 1 h 58 min
Bit rate mode : Constant
Bit rate : 448 kb/s
Channel(s) : 6 channels
Channel positions : Front: L C R, Side: L R, LFE
Sampling rate : 48.0 kHz
Frame rate : 31.250 FPS (1536 spf)
Compression mode : Lossy
Stream size : 380 MiB (18%)
Title : MVO (BD RUS)
Language : Russian
Default : Yes
Forced : No

Audio #2
ID : 3
Format : AC-3
Format/Info : Audio Coding 3
Mode extension : CM (complete main)
Format settings, Endianness : Big
Codec ID : A_AC3
Duration : 1 h 58 min
Bit rate mode : Constant
Bit rate : 448 kb/s
Channel(s) : 6 channels
Channel positions : Front: L C R, Side: L R, LFE
Sampling rate : 48.0 kHz
Frame rate : 31.250 FPS (1536 spf)
Compression mode : Lossy
Stream size : 380 MiB (18%)
Language : English
Default : No
Forced : No

Text #1
ID : 4
Format : UTF-8
Codec ID : S_TEXT/UTF8
Codec ID/Info : UTF-8 Plain Text
Title : Full
Language : Russian
Default : No
Forced : No

Text #2
ID : 5
Format : UTF-8
Codec ID : S_TEXT/UTF8
Codec ID/Info : UTF-8 Plain Text
Title : Forced
Language : English
Default : No
Forced : No

Text #3
ID : 6
Format : UTF-8
Codec ID : S_TEXT/UTF8
Codec ID/Info : UTF-8 Plain Text
Language : English
Default : No
Forced : No

Menu
00:00:00.000 : en:00:00:00.000
00:08:10.073 : en:00:08:10.073
00:14:40.797 : en:00:14:40.797
00:22:37.815 : en:00:22:37.815
00:27:39.825 : en:00:27:39.825
00:32:52.053 : en:00:32:52.053
00:40:06.362 : en:00:40:06.362
00:45:45.201 : en:00:45:45.201
00:53:35.170 : en:00:53:35.170
00:58:50.902 : en:00:58:50.902
01:04:37.582 : en:01:04:37.582
01:09:15.985 : en:01:09:15.985
01:16:41.347 : en:01:16:41.347
01:22:29.444 : en:01:22:29.444
01:29:51.636 : en:01:29:51.636
01:37:00.857 : en:01:37:00.857
01:43:10.017 : en:01:43:10.017
01:51:34.313 : en:01:51:34.313
Релиз от:

Автор релиза:

piratbit.org



Скачать Лев через торрент http://i045.radikal.ru/1703/92/bfd413c4937c.jpg Скачать фильм Лев через торрент бесплантно в хорошем качестве Описание: Мальчик из трущоб, Сару, потерялся в возрасте 5 лет. Ему удалось выжить и найти новый дом в Австралии. 25 лет спустя он чудом ... 8.7 10 40
Info! Золотая раздача, скачанное не засчитывается.
Торрент: Зарегистрирован [2017-05-18 12:04] · скачан: 471 раз
Статус: √ проверено
Размер: 2.04 GB
Как cкачать? Как скачать Лев через торрент | UTorrent



Последний раз редактировалось: Enigma2010 (2017-05-18 12:04), всего редактировалось 5 раз(а)

28-11-2019 20:33  

Отключить всю рекламу на сайте

19-03-2017 19:43 Лев Скачать торрент  

Замечательный фильм! Всем рекомендую к просмотру!piratbit.org



31-03-2017 04:14 Лев Скачать торрент  

Это пилот, которого все искали, из Изгоя-Один?piratbit.org



31-03-2017 06:02 Лев Скачать торрент  

solovyov писал(а):

Это пилот, которого все искали, из Изгоя-Один?

миллионер из трущоб видел? так вот это тот актёр)piratbit.org



31-03-2017 07:46 Лев Скачать торрент  

Описание крутое.piratbit.org



01-04-2017 20:48 Лев Скачать торрент  

Сильный фильм.piratbit.org



02-04-2017 14:10 Лев Скачать торрент  

Так себе.Ожидал большего.Сцена встречи с матерью вообще аут просто.Кто все эти люди?Так его обнимает как будто его всего пару дней не было.piratbit.org



    Дорогой пользователь! Огромная просьба, поблагодарите релизера, оцените раздачу и оставьте свои комментарий, если Вы скачали Лев через торрент бесплатно! Внесите свою лепту в развитие PiratBit!
    Комментировать посты могут только пользователи прошедшие не сложную регистрацию
    Показать сообщения:    

    Лев через торрент
    Скачать бесплатно Лев
    Лев скачать торрент
    Лев смотреть онлайн
    Cкачать фильм Лев бесплатно
    Лев скачать торрент в хорошем качестве
    Лев смотреть онлайн бесплатно в хорошем качестве


    Вы не можете начинать темы
    Вы не можете отвечать на сообщения
    Вы не можете редактировать свои сообщения
    Вы не можете удалять свои сообщения
    Вы не можете голосовать в опросах
    Вы не можете прикреплять файлы к сообщениям
    Вы можете скачивать файлы