1 сезон

3 сезон

iTunes

1

iTunes

DUB Netflix

iTunes

13

1 сезон

RePack

30

Deluxe

pack

Легкие деньги

ВАЖНО

ИГРА 18+

pack

RePack

MK11

RePack

jed

RePack

fifa19

RePack

RDR2

RePack

NEED FOR SPEED™ PAYBACK

4 сезон

9 сезон

Бесстыжие 9 сезон

Все сериалы

все сериалы на PB.wtf

RePack

FAR CRY 5

Anonymous, добрый вечер, мы не успеваем до 1 числа собрать деньги на оплату серверов, помогите нам пожалуйста в это трудное время. В качестве благодарности мы отключим Вам всю рекламу на сайте (укажите свой ник в строку Ваше имя)!

×
  
Magnet ссылка

Лев / Lion (Гарт Дэвис) [2016 г., драма, HDRip, Профессиональный многоголосый закадровый "BD RUS"] piratbit.org

Лев через торрент piratbit.org

Размер: 2.2 GB | Добавлен: 3 года 10 мес. назад | Торрент скачан:145 раз
Скачать  

16-03-2017 18:15 Лев Скачать торрент  

Лев / Lion
Год выпуска: 2016
Страна: США, Австралия, Великобритания / Weinstein Company, The, Screen Australia, See-Saw Films
Жанр: драма
Продолжительность: 01:58:29
Перевод: Профессиональный многоголосый закадровый (BD RUS)
Режиссер: Гарт Дэвис

rating

В ролях: Дев Патель, Николь Кидман, Руни Мара, Дэвид Уэнэм, Санни Павар, Абхишек Бхарате, Приянка Бозе, Кхуши Соланки, Шанкар Нисоде, Танништа Чаттерджи

Описание: Мальчик из трущоб, Сару, потерялся в возрасте 5 лет. Ему удалось выжить и найти новый дом в Австралии. 25 лет спустя он чудом вернулся в родной дом и встретился с матерью.

Качество: HDRip
Формат: AVI
Видео кодек: XviD
Аудио кодек: AC3
Видео: 720x304 (2.37:1), 23.976 fps, XviD build 50 ~2203 kbps avg, 0.42 bit/pixel
Аудио: 48 kHz, AC3 Dolby Digital, 3/2 (L,C,R,l,r) + LFE ch, ~448 kbps
скриншот   скриншот   скриншот   скриншот  

Общее
Полное имя : F:\ФИЛЬМЫ\Лев.2016.HDRip.avi
Формат : AVI
Формат/Информация : Audio Video Interleave
Профиль формата : OpenDML
Размер файла : 2,20 Гбайт
Продолжительность : 1 ч. 58 м.
Общий поток : 2658 Кбит/сек
Программа кодирования : VirtualDubMod 1.5.10.3 | www.virtualdub-fr.org || (build 2550/release)
Библиотека кодирования : VirtualDubMod build 2550/release

Видео
Идентификатор : 0
Формат : MPEG-4 Visual
Профиль формата : Advanced Simple@L5
Параметр BVOP формата : 1
Параметр QPel формата : Нет
Параметр GMC формата : Без точки перехода
Параметр матрицы формата : Default (MPEG)
Идентификатор кодека : XVID
Идентификатор кодека/Подсказка : XviD
Продолжительность : 1 ч. 58 м.
Битрейт : 2199 Кбит/сек
Ширина : 720 пикселей
Высота : 304 пикселя
Соотношение сторон : 2,35:1
Частота кадров : 23,976 (24000/1001) кадра/сек
Цветовое пространство : YUV
Субдискретизация насыщенности : 4:2:0
Битовая глубина : 8 бит
Тип развёртки : Прогрессивная
Метод сжатия : С потерями
Бит/(Пиксели*Кадры) : 0.419
Размер потока : 1,82 Гбайт (83%)
Библиотека кодирования : XviD 1.2.1 (UTC 2008-12-04)

Аудио
Идентификатор : 1
Формат : AC-3
Формат/Информация : Audio Coding 3
Параметр Endianness формата : Big
Идентификатор кодека : 2000
Продолжительность : 1 ч. 58 м.
Вид битрейта : Постоянный
Битрейт : 448 Кбит/сек
Каналы : 6 каналов
Расположение каналов : Front: L C R, Side: L R, LFE
Частота : 48,0 КГц
Частота кадров : 31,250 кадров/сек (1536 SPF)
Битовая глубина : 16 бит
Метод сжатия : С потерями
Размер потока : 379 Мбайт (17%)
Выравнивание : Разделение по промежуткам
Продолжительность промежутка : 42 мс. (1,00 видеокадр)
Время предзагрузки промежутка : 500 мс.
ServiceKind/String : Complete Main

piratbit.org



Скачать Лев через торрент https://pic1.kartinco.top/images/11/vviib.jpg Скачать фильм Лев через торрент бесплантно в хорошем качестве Описание: Мальчик из трущоб, Сару, потерялся в возрасте 5 лет. Ему удалось выжить и найти новый дом в Австралии. 25 лет спустя он чудом ... 8.7 10 10
Торрент: Зарегистрирован [2017-08-09 18:26] · скачан: 145 раз
Статус: √ проверено
Размер: 2.2 GB
Как cкачать? Как скачать Лев через торрент | UTorrent

% Раздел Тема Автор DL S | L
Фильмы с украинским озвучиванием [ 3.43 GB ] Агент Лев / Le lion [2020 WEB-DL 1080p] [Ukr DUB] killermax2013 Скачать
1 | 0
Фильмы (WEB-DL 720p, 1080p) [ 3.3 GB ] Агент Лев / Le lion [2020 WEB-DL 1080p] bober100 Скачать
1 | 0
T Фильмы (мультфильмы) cо спонсором показа (Новинки AVI/MKV) [ 3.93 GB ] Агент Лев / Le lion [2020 WEB-DL 720p] MVO [AlphaProject] bober100 Скачать
1 | 0
Фильмы 2019-2020 [DVDrip, WEB-DLRip, HDrip] (DUB, MVO) [ 1.46 GB ] Агент Лев / Le lion [2020 WEB-DLRip] bober100 Скачать
2 | 0
Иностранные мультфильмы [ 795 MB ] Король Лев / The Lion King [2019 мультфильм мюзикл HDRip] DUB [] bober100 Скачать
1 | 0
Ultra HD (UHD: 2K, 4K, 8K) [ 24.36 GB ] Король Лев / The Lion King [2019 мультфильм мюзикл UHD BDRip 2160p] DUB [] bober100 Скачать
1 | 0
3D Мультфильмы [ 13.45 GB ] Король Лев 3Д / The Lion King 3D [2019 мультфильм мюзикл BDRip 1080p] [Anamorph SideBySide] DUB [] bober100 Скачать
2 | 0

28-11-2019 20:33  

Отключить всю рекламу на сайте

09-08-2017 18:27 Лев Скачать торрент  

Релиз обновлен ! Присьба перекачать торрент файл ! piratbit.org



    Дорогой пользователь! Огромная просьба, поблагодарите релизера, оцените раздачу и оставьте свои комментарий, если Вы скачали Лев через торрент бесплатно! Внесите свою лепту в развитие PiratBit!
    Комментировать посты могут только пользователи прошедшие не сложную регистрацию
    Показать сообщения:    

    Лев через торрент
    Скачать бесплатно Лев
    Лев скачать торрент
    Лев смотреть онлайн
    Cкачать фильм Лев бесплатно
    Лев скачать торрент в хорошем качестве
    Лев смотреть онлайн бесплатно в хорошем качестве


    Вы не можете начинать темы
    Вы не можете отвечать на сообщения
    Вы не можете редактировать свои сообщения
    Вы не можете удалять свои сообщения
    Вы не можете голосовать в опросах
    Вы не можете прикреплять файлы к сообщениям
    Вы можете скачивать файлы