1 сезон

3 сезон

iTunes

1

iTunes

DUB Netflix

iTunes

13

1 сезон

RePack

30

Deluxe

pack

Легкие деньги

ВАЖНО

ИГРА 18+

pack

RePack

MK11

RePack

jed

RePack

fifa19

RePack

RDR2

RePack

NEED FOR SPEED™ PAYBACK

4 сезон

9 сезон

Бесстыжие 9 сезон

Все сериалы

все сериалы на PB.wtf

RePack

FAR CRY 5

Anonymous, доброй ночи, мы не успеваем до 1 числа собрать деньги на оплату серверов, помогите нам пожалуйста в это трудное время. В качестве благодарности мы отключим Вам всю рекламу на сайте (укажите свой ник в строку Ваше имя)!

×
  
Magnet ссылка

Инкарнация / Incarnate (Брэд Пейтон) [2016, ужасы, триллер, HDRip] Дубляж - [Лицензия / iTunes] piratbit.org

Инкарнация через торрент piratbit.org

Раздают: 1 [ 0 KB/s ]
Размер: 1.36 GB | Добавлен: 4 года 3 мес. назад | Торрент скачан:755 раз
Скачать  

17-03-2017 08:15 Инкарнация Скачать торрент  

Инкарнация / Incarnate

Год выпуска: 2016
Страна: США
Жанр: ужасы, триллер

Продолжительность: 01:26:10
Перевод: Дубляж - [Лицензия / iTunes]
Режиссер: Брэд Пейтон
В ролях:

Аарон Экхарт (Dr. Ember), Кэрис ван Хаутен (Lindsey), Каталина Сандино Морено (Camilla), Дэвид Мазоуз (Cameron), Кейр О’Доннелл (Oliver), Мэтью Нэйбл (Dan), Эмили Джексон (Riley), Пол Винсент О’Коннор (Priest), Наталия Ногулич (Maggie (in the Car)), Джон Пирруччелло (Henry), Петра Шпрехер (Homeless Woman), Бриэнн Хилл (Ilsa)
Описание:
Доктор Эмбер - не экзорцист. У него свои методы изгонять зло, поселившееся в людях. Но, проникнув в сознание 11-летнего мальчика, доктор понял, что это именно тот могущественный демон, с которым он ищет встречи уже многие годы.
Рейтинг:

MPAA: PG-13 - Детям до 13 лет просмотр не желателен
Качество: HDRip
Формат: AVI
Видео: XviD, 720x304 (2.35:1), 1769 kbps, 23,976 fps, 0,337 bpp
Аудио: AC3 / 5.1 / 48 kHz / 384 kbps /
General
Complete name : E:\InK0RnaCiA.2O16.D.HDRip.14OOMB.avi
Format : AVI
Format/Info : Audio Video Interleave
File size : 1.36 GiB
Duration : 1 h 26 min
Overall bit rate : 2 252 kb/s
Writing application : VirtualDubMod 1.5.10.2 (build 2540/release)
Writing library : VirtualDubMod build 2540/release

Video
ID : 0
Format : MPEG-4 Visual
Format profile : Advanced Simple@L5
Format settings, BVOP : 2
Format settings, QPel : No
Format settings, GMC : No warppoints
Format settings, Matrix : Default (MPEG)
Codec ID : XVID
Codec ID/Hint : XviD
Duration : 1 h 26 min
Bit rate : 1 770 kb/s
Width : 720 pixels
Height : 304 pixels
Display aspect ratio : 2.35:1
Frame rate : 23.976 (24000/1001) FPS
Color space : YUV
Chroma subsampling : 4:2:0
Bit depth : 8 bits
Scan type : Progressive
Compression mode : Lossy
Bits/(Pixel*Frame) : 0.337
Stream size : 1.07 GiB (79%)
Writing library : XviD 1.2.1 (UTC 2008-12-04)

Audio
ID : 1
Format : AC-3
Format/Info : Audio Coding 3
Mode extension : CM (complete main)
Format settings, Endianness : Big
Codec ID : 2000
Duration : 1 h 26 min
Bit rate mode : Constant
Bit rate : 384 kb/s
Channel(s) : 6 channels
Channel positions : Front: L C R, Side: L R, LFE
Sampling rate : 48.0 kHz
Frame rate : 31.250 FPS (1536 spf)
Compression mode : Lossy
Stream size : 237 MiB (17%)
Alignment : Split accross interleaves
piratbit.org



Скачать Инкарнация через торрент http://i1.imageban.ru/out/2017/03/17/6d0702bea9b7765d440c9ef3c07ad7f0.jpg Скачать фильм Инкарнация через торрент бесплантно в хорошем качестве Описание: Доктор Эмбер - не экзорцист. У него свои методы изгонять зло, поселившееся в людях. Но, проникнув в сознание 11-летнего мальчика, ... 9.5 10 23
Info! Золотая раздача, скачанное не засчитывается.
Торрент: Зарегистрирован [2017-03-17 08:15] · скачан: 755 раз
Статус: √ проверено
Размер: 1.36 GB
Как cкачать? Как скачать Инкарнация через торрент | UTorrent

% Раздел Тема Автор DL S | L
Фильмы 2016 [DVDrip, WEB-DLRip, HDrip] (DUB, MVO) [ 1.42 GB ] Инкарнация / Incarnate [2016 BDRip] - Twi7ter Скачать
1 | 0
Фильмы (Blu-ray, BD-Remux, HDDVD) [ 18.93 GB ] Инкарнация / Incarnate [2016 BDRemux 1080p] от ExKinoRay / Russian Mafia Скачать
1 | 0
T Релизы по Парсеру [Игры, Сериалы и Фильмы и другое...] [ 4.08 GB ] Инкарнация / Incarnate [2016 BDRip 720p] killermax2013 Скачать
1 | 0

28-11-2019 20:33  

Отключить всю рекламу на сайте

17-03-2017 16:26 Инкарнация Скачать торрент  

Какая же муть ... мне стыдно за современный кинематограф ! В 80-90х уже снимали нормальные фильмы , не имея особой возможности для спецэфектов , а что сейчас ?! ... Банально фантазии даже не хватает придумать что-то интересное , примитивщина !piratbit.org



    Дорогой пользователь! Огромная просьба, поблагодарите релизера, оцените раздачу и оставьте свои комментарий, если Вы скачали Инкарнация через торрент бесплатно! Внесите свою лепту в развитие PiratBit!
    Комментировать посты могут только пользователи прошедшие не сложную регистрацию
    Показать сообщения:    

    Инкарнация через торрент
    Скачать бесплатно Инкарнация
    Инкарнация скачать торрент
    Инкарнация смотреть онлайн
    Cкачать фильм Инкарнация бесплатно
    Инкарнация скачать торрент в хорошем качестве
    Инкарнация смотреть онлайн бесплатно в хорошем качестве


    Вы не можете начинать темы
    Вы не можете отвечать на сообщения
    Вы не можете редактировать свои сообщения
    Вы не можете удалять свои сообщения
    Вы не можете голосовать в опросах
    Вы не можете прикреплять файлы к сообщениям
    Вы можете скачивать файлы