1 сезон

3 сезон

iTunes

1

iTunes

DUB Netflix

iTunes

13

1 сезон

RePack

30

Deluxe

pack

Легкие деньги

ВАЖНО

ИГРА 18+

pack

RePack

MK11

RePack

jed

RePack

fifa19

RePack

RDR2

RePack

NEED FOR SPEED™ PAYBACK

4 сезон

9 сезон

Бесстыжие 9 сезон

Все сериалы

все сериалы на PB.wtf

RePack

FAR CRY 5

Anonymous, добрый день, мы не успеваем до 1 числа собрать деньги на оплату серверов, помогите нам пожалуйста в это трудное время. В качестве благодарности мы отключим Вам всю рекламу на сайте (укажите свой ник в строку Ваше имя)!

×
  
Magnet ссылка

Игрушки из будущего / Time Toys (Марк Росман) [2016 г., фантастика, семейный, WEB-DLRip, Любительский (многоголосый)[Синема УС]] piratbit.org

Игрушки из будущего через торрент piratbit.org

Размер: 1.37 GB | Добавлен: 4 года 3 мес. назад | Торрент скачан:306 раз
Скачать  

17-03-2017 19:36 Игрушки из будущего Скачать торрент  

Игрушки из будущего / Time Toys
Год выпуска: 2016
Страна: США
Жанр: фантастика, семейный
Продолжительность: 01:27:44
Перевод: Любительский (многоголосый)[Синема УС]
Субтитры: нет

Режиссер: Марк Росман

В ролях: Гриффин Кливлэнд, Дж.Дж. Тота, Джейден Беттс, Сэмюэл Гилберт, Эд Бегли мл., Грег Джерманн, Маккензи Аладжем, Dalton Cyr, Evan Roe, Парвеш Шина

Описание: Несколько школьников находят странный ящик с игрушками из будущего. Находка увлекает их в невероятное приключение, во время которого они спасают весь мир от сумасшедшего ученого, а также, будучи "лузерами", узнают, что изначально обладали теми качествами, которых им, казалось, так не хватало.

Доп. информация: есть реклама.

Качество: WEB-DLRip
Формат: AVI
Видео кодек: XviD
Аудио кодек: AC3
Видео: 720x304 (2.37:1), 23.976 fps, XviD build 50 ~1836 kbps avg, 0.35 bit/pixel
Аудио#1: 48 kHz, AC3 Dolby Digital, 2/0 (L,R) ch, ~384 kbps



General
Complete name : H:\релизы.торрентфайл\Time.Toys.2016.P.WEB-DLRip.14OOMB_KOSHARA.avi
Format : AVI
Format/Info : Audio Video Interleave
File size : 1.37 GiB
Duration : 1h 27mn
Overall bit rate : 2 230 Kbps
Writing application : VirtualDubMod 1.5.10.2 (build 2540/release)
Writing library : VirtualDubMod build 2540/release

Video
ID : 0
Format : MPEG-4 Visual
Format profile : Advanced Simple@L5
Format settings, BVOP : 2
Format settings, QPel : No
Format settings, GMC : No warppoints
Format settings, Matrix : Default (MPEG)
Codec ID : XVID
Codec ID/Hint : XviD
Duration : 1h 27mn
Bit rate : 1 837 Kbps
Width : 720 pixels
Height : 304 pixels
Display aspect ratio : 2.35:1
Frame rate : 23.976 fps
Color space : YUV
Chroma subsampling : 4:2:0
Bit depth : 8 bits
Scan type : Progressive
Compression mode : Lossy
Bits/(Pixel*Frame) : 0.350
Stream size : 1.13 GiB (82%)
Writing library : XviD 1.2.1 (UTC 2008-12-04)

Audio
ID : 1
Format : AC-3
Format/Info : Audio Coding 3
Mode extension : CM (complete main)
Format settings, Endianness : Big
Codec ID : 2000
Duration : 1h 27mn
Bit rate mode : Constant
Bit rate : 384 Kbps
Channel(s) : 2 channels
Channel positions : Front: L R
Sampling rate : 48.0 KHz
Bit depth : 16 bits
Compression mode : Lossy
Stream size : 241 MiB (17%)
Alignment : Split accross interleaves
Interleave, duration : 42 ms (1.00 video frame)
Interleave, preload duration : 500 ms

piratbit.org



Скачать Игрушки из будущего через торрент https://pic1.kartinco.top/images/11/7qdue.jpg Скачать фильм Игрушки из будущего через торрент бесплантно в хорошем качестве Описание: Несколько школьников находят странный ящик с игрушками из будущего. Находка увлекает их в невероятное , во время ... 9.4 10 16
Торрент: Зарегистрирован [2017-03-17 19:36] · скачан: 306 раз
Статус: T временная
Размер: 1.37 GB
Как cкачать? Как скачать Игрушки из будущего через торрент | UTorrent

28-11-2019 20:33  

Отключить всю рекламу на сайте


    Дорогой пользователь! Огромная просьба, поблагодарите релизера, оцените раздачу и оставьте свои комментарий, если Вы скачали Игрушки из будущего через торрент бесплатно! Внесите свою лепту в развитие PiratBit!
    Комментировать посты могут только пользователи прошедшие не сложную регистрацию
    Показать сообщения:    

    Игрушки из будущего через торрент
    Скачать бесплатно Игрушки из будущего
    Игрушки из будущего скачать торрент
    Игрушки из будущего смотреть онлайн
    Cкачать фильм Игрушки из будущего бесплатно
    Игрушки из будущего скачать торрент в хорошем качестве
    Игрушки из будущего смотреть онлайн бесплатно в хорошем качестве


    Вы не можете начинать темы
    Вы не можете отвечать на сообщения
    Вы не можете редактировать свои сообщения
    Вы не можете удалять свои сообщения
    Вы не можете голосовать в опросах
    Вы не можете прикреплять файлы к сообщениям
    Вы можете скачивать файлы