1 сезон

3 сезон

iTunes

1

iTunes

DUB Netflix

iTunes

13

1 сезон

RePack

30

Deluxe

pack

Легкие деньги

ВАЖНО

ИГРА 18+

pack

RePack

MK11

RePack

jed

RePack

fifa19

RePack

RDR2

RePack

NEED FOR SPEED™ PAYBACK

4 сезон

9 сезон

Бесстыжие 9 сезон

Все сериалы

все сериалы на PB.wtf

RePack

FAR CRY 5

Anonymous, добрый день, мы не успеваем до 1 числа собрать деньги на оплату серверов, помогите нам пожалуйста в это трудное время. В качестве благодарности мы отключим Вам всю рекламу на сайте (укажите свой ник в строку Ваше имя)!

×
  
Magnet ссылка

Карьер / Quarries (Нилс Тейлор) [2016 г., ужасы, триллер, драма, WEB-DLRip, Любительский (многоголосый)["Синема УС"]] piratbit.org

Карьер через торрент piratbit.org

Качают: 1 [ 0 KB/s ]
Размер: 1.37 GB | Добавлен: 4 года 3 мес. назад | Торрент скачан:180 раз
Скачать  

18-03-2017 04:48 Карьер Скачать торрент  

Карьер / Quarries
Год выпуска: 2016
Страна: США / Diamond Cutter Films, Indiesyndicate Productions
Жанр: ужасы, триллер, драма
Продолжительность: 01:23:37
Перевод: Любительский (многоголосый)["Синема УС"]
Субтитры: нет

Режиссер: Нилс Тейлор

rating

В ролях: Николь Мари Джонсон, Лейша Хейли, Кэрри Финкли, Сара Морнелл, Джим Девоти, Николь Дюпор, Rebecca McFadzien, Люк Эдвардс, Коуди Дэвис, Майк Йебба

Описание: Измученная своим жестоким парнем, Кэт присоединяется к группе девушек, отправляющихся в поход по лесной глуши. Однако, поиск внутренних сил оборачивается настоящим кошмаром, когда на путешественниц открывает охоту банда головорезов, промышляющих в этой местности.

Доп. информация: ПРИСУТСТВУЕТ РЕКЛАМА!

Качество: WEB-DLRip
Формат: AVI
Видео кодек: XviD
Аудио кодек: AC3
Видео: 720x352 (2.05:1), 23.976 fps, XviD , ~1946 kbps
Аудио: 48 kHz, AC3 , 2/0 (L,R) ch, ~384 kbps

Сэмпл: http://multi-up.com/1145695


General
Complete name : H:\релизы.торрентфайл\Quarries.2016.P.WEB-DLRip.avi
Format : AVI
Format/Info : Audio Video Interleave
File size : 1.37 GiB
Duration : 1h 23mn
Overall bit rate : 2 340 Kbps
Writing application : VirtualDubMod 1.5.10.2 (build 2540/release)
Writing library : VirtualDubMod build 2540/release

Video
ID : 0
Format : MPEG-4 Visual
Format profile : Advanced Simple@L5
Format settings, BVOP : 2
Format settings, QPel : No
Format settings, GMC : No warppoints
Format settings, Matrix : Default (MPEG)
Codec ID : XVID
Codec ID/Hint : XviD
Duration : 1h 23mn
Bit rate : 1 947 Kbps
Width : 720 pixels
Height : 352 pixels
Display aspect ratio : 2.045
Frame rate : 23.976 fps
Color space : YUV
Chroma subsampling : 4:2:0
Bit depth : 8 bits
Scan type : Progressive
Compression mode : Lossy
Bits/(Pixel*Frame) : 0.320
Stream size : 1.14 GiB (83%)
Writing library : XviD 1.2.1 (UTC 2008-12-04)

Audio
ID : 1
Format : AC-3
Format/Info : Audio Coding 3
Mode extension : CM (complete main)
Format settings, Endianness : Big
Codec ID : 2000
Duration : 1h 23mn
Bit rate mode : Constant
Bit rate : 384 Kbps
Channel(s) : 2 channels
Channel positions : Front: L R
Sampling rate : 48.0 KHz
Bit depth : 16 bits
Compression mode : Lossy
Stream size : 230 MiB (16%)
Alignment : Split accross interleaves
Interleave, duration : 42 ms (1.00 video frame)
Interleave, preload duration : 500 ms

piratbit.org



Скачать Карьер через торрент http://i91.fastpic.ru/big/2017/0317/9b/69bd2f7702265ca3bd2081343f35169b.jpg Скачать фильм Карьер через торрент бесплантно в хорошем качестве Описание: Измученная своим жестоким парнем, Кэт присоединяется к группе девушек, отправляющихся в поход по лесной глуши. Однако, поиск ... 8.5 10 6
Торрент: Зарегистрирован [2017-03-18 04:48] · скачан: 180 раз
Статус: T временная
Размер: 1.37 GB
Как cкачать? Как скачать Карьер через торрент | UTorrent

% Раздел Тема Автор DL S | L
T Фильмы 2019-2020 [DVDrip, WEB-DLRip, HDrip] (DUB, MVO) [ 1.46 GB ] Карьер / The Quarry [2020 BDRip] MVO [Mallorn] bober100 Скачать
1 | 0
T Фильмы [HD 720p, 1080p] (Хороший звук DUB, MVO) [ 10.16 GB ] Карьер / The Quarry [2020 BDRip 1080p] MVO [Mallorn] bober100 Скачать
2 | 0
T Фильмы [HD 720p, 1080p] (Хороший звук DUB, MVO) [ 5.4 GB ] Карьер / The Quarry [2020 BDRip 720p] MVO [Mallorn] bober100 Скачать
1 | 0
T Фильмы 2019-2020 [DVDrip, WEB-DLRip, HDrip] (DUB, MVO) [ 2.26 GB ] Карьер / The Quarry [2020 WEB-DLRip-AVC] [MVO] killermax2013 Скачать
1 | 0
Зарубежные сериалы [ 5.77 GB ] Наемник Куорри / Карьер / Quarry / Сезон: 1 / Серии 1-8 из 8 [2016 HDTVRip] [MVO] killermax2013 Скачать
1 | 0
Зарубежные сериалы [ 10.11 GB ] Наемник Куорри / Карьер / Quarry / Сезон: 1 / Серии 1-8 из 8 [2016 HDTVRip 720p] [MVO] + [Orig] killermax2013 Скачать
1 | 0


Последний раз редактировалось: oleg8 (2017-03-18 04:57), всего редактировалось 2 раз(а)

28-11-2019 20:33  

Отключить всю рекламу на сайте

18-03-2017 04:54 Карьер Скачать торрент  

семпл заливается.piratbit.org



    Дорогой пользователь! Огромная просьба, поблагодарите релизера, оцените раздачу и оставьте свои комментарий, если Вы скачали Карьер через торрент бесплатно! Внесите свою лепту в развитие PiratBit!
    Комментировать посты могут только пользователи прошедшие не сложную регистрацию
    Показать сообщения:    

    Карьер через торрент
    Скачать бесплатно Карьер
    Карьер скачать торрент
    Карьер смотреть онлайн
    Cкачать фильм Карьер бесплатно
    Карьер скачать торрент в хорошем качестве
    Карьер смотреть онлайн бесплатно в хорошем качестве


    Вы не можете начинать темы
    Вы не можете отвечать на сообщения
    Вы не можете редактировать свои сообщения
    Вы не можете удалять свои сообщения
    Вы не можете голосовать в опросах
    Вы не можете прикреплять файлы к сообщениям
    Вы можете скачивать файлы