1 сезон

3 сезон

iTunes

1

iTunes

DUB Netflix

iTunes

13

1 сезон

RePack

30

Deluxe

pack

Легкие деньги

ВАЖНО

ИГРА 18+

pack

RePack

MK11

RePack

jed

RePack

fifa19

RePack

RDR2

RePack

NEED FOR SPEED™ PAYBACK

4 сезон

9 сезон

Бесстыжие 9 сезон

Все сериалы

все сериалы на PB.wtf

RePack

FAR CRY 5

Anonymous, добрый вечер, мы не успеваем до 1 числа собрать деньги на оплату серверов, помогите нам пожалуйста в это трудное время. В качестве благодарности мы отключим Вам всю рекламу на сайте (укажите свой ник в строку Ваше имя)!

×
  
Magnet ссылка

Почему он? / Why Him? (Джон Гамбург) [2016, комедия, BDRip-AVC] Дубляж - [Лицензия] от ExKinoRay piratbit.org

Почему он? через торрент piratbit.org

Размер: 2.59 GB | Добавлен: 4 года 2 мес. назад | Торрент скачан:1148 раз
Скачать  

20-03-2017 02:52 Почему он? Скачать торрент  

Информация о фильме
Название: Почему он?
Оригинальное название: Why Him?
Год выпуска: 2016
Страна: США
Студия: 20th Century Fox Film Corporation, 21 Laps Entertainment, Red Hour Films, TSG Entertainment
Жанр: Комедия
Продолжительность: 01:51:12
Перевод: Дублированный | Лицензия
Субтитры: Русские (forced, full), английские (full, SDH Colored)
Режиссер: Джон Гамбург
В ролях: Зои Дойч, Джеймс Франко, Тэнджи Эмброуз, Седрик-развлекатель, Боб Стефенсон, Брайан Крэнстон, Меган Маллалли, Зак Перлман, Гриффин Глюк, Джи Янг Хань
Описание: Строгий глава семейства, проповедующий идеалы морали и высокие профессиональные стандарты, пускается во все тяжкие после знакомства с первым парнем своей дочери. С виду интеллигентный молодой человек оказывается не только миллиардером, плейбоем и филантропом, но и активным сторонником контролируемой шизофрении и вообще очень интересной личностью. Его эксцентричное поведение вызывает непонимание у "старой школы", перерастающее в открытое соперничество двух поколений.
rating

Файл
Качество: BDRip (AVC)
Видео: MPEG-4 AVC, 1024x554 (1.85:1), 23.976 fps, ~2250 kbps avg, 0.165 bit/pixel
Аудио №1: AC3 / 5.1 / 48 kHz / 448 kbps / - дубляж
Аудио №2: AC3 / 2.0 / 48 kHz / 192 kbps / - украинский
Аудио №3: AC3 / 5.1 / 48 kHz / 448 kbps / - английский
General
Unique ID : 240003914166155001104020854074765680453 (0xB48F128FC56C5EBF9F69D742F0C71F45)
Complete name : D:\Why.Him.2016.BDRip.AVC.ExKinoRay.mkv
Format : Matroska
Format version : Version 2
File size : 2.59 GiB
Duration : 1 h 51 min
Overall bit rate : 3 339 kb/s
Movie name : Why Him? (2016) from ExKinoRay
Encoded date : UTC 2017-04-21 19:58:56
Writing application : mkvmerge v5.8.0 ('No Sleep / Pillow') built on Sep 2 2012 15:37:04
Writing library : libebml v1.2.3 + libmatroska v1.3.0

Video
ID : 1
Format : AVC
Format/Info : Advanced Video Codec
Format profile : High@L4.1
Format settings, CABAC : Yes
Format settings, ReFrames : 12 frames
Codec ID : V_MPEG4/ISO/AVC
Duration : 1 h 51 min
Bit rate : 2 250 kb/s
Width : 1 024 pixels
Height : 554 pixels
Display aspect ratio : 1.85:1
Frame rate mode : Constant
Frame rate : 23.976 (24000/1001) FPS
Color space : YUV
Chroma subsampling : 4:2:0
Bit depth : 8 bits
Scan type : Progressive
Bits/(Pixel*Frame) : 0.165
Stream size : 1.70 GiB (65%)
Title : Enigma
Writing library : x264 core 148 r2638 7599210
Encoding settings : cabac=1 / ref=12 / deblock=1:-2:-2 / analyse=0x3:0x133 / me=umh / subme=10 / psy=1 / psy_rd=1.05:0.00 / mixed_ref=1 / me_range=32 / chroma_me=1 / trellis=2 / 8x8dct=1 / cqm=0 / deadzone=21,11 / fast_pskip=0 / chroma_qp_offset=-2 / threads=12 / lookahead_threads=3 / sliced_threads=0 / nr=0 / decimate=0 / interlaced=0 / bluray_compat=0 / constrained_intra=0 / bframes=10 / b_pyramid=2 / b_adapt=2 / b_bias=0 / direct=3 / weightb=1 / open_gop=0 / weightp=2 / keyint=240 / keyint_min=23 / scenecut=40 / intra_refresh=0 / rc_lookahead=40 / rc=2pass / mbtree=0 / bitrate=2250 / ratetol=1.0 / qcomp=0.60 / qpmin=0 / qpmax=51 / qpstep=4 / cplxblur=20.0 / qblur=0.5 / vbv_maxrate=50000 / vbv_bufsize=62500 / nal_hrd=none / filler=0 / ip_ratio=1.40 / pb_ratio=1.30 / aq=1:0.80
Default : Yes
Forced : No
Color range : Limited
Color primaries : BT.709
Transfer characteristics : BT.709
Matrix coefficients : BT.709

Audio #1
ID : 2
Format : AC-3
Format/Info : Audio Coding 3
Mode extension : CM (complete main)
Format settings, Endianness : Big
Codec ID : A_AC3
Duration : 1 h 51 min
Bit rate mode : Constant
Bit rate : 448 kb/s
Channel(s) : 6 channels
Channel positions : Front: L C R, Side: L R, LFE
Sampling rate : 48.0 kHz
Frame rate : 31.250 FPS (1536 spf)
Compression mode : Lossy
Stream size : 356 MiB (13%)
Title : Dub (BD CEE)
Language : Russian
Default : Yes
Forced : No

Audio #2
ID : 3
Format : AC-3
Format/Info : Audio Coding 3
Mode extension : CM (complete main)
Format settings, Endianness : Big
Codec ID : A_AC3
Duration : 1 h 51 min
Bit rate mode : Constant
Bit rate : 192 kb/s
Channel(s) : 2 channels
Channel positions : Front: L R
Sampling rate : 48.0 kHz
Frame rate : 31.250 FPS (1536 spf)
Compression mode : Lossy
Stream size : 153 MiB (6%)
Title : iTunes
Language : Ukrainian
Default : No
Forced : No

Audio #3
ID : 4
Format : AC-3
Format/Info : Audio Coding 3
Mode extension : CM (complete main)
Format settings, Endianness : Big
Codec ID : A_AC3
Duration : 1 h 51 min
Bit rate mode : Constant
Bit rate : 448 kb/s
Channel(s) : 6 channels
Channel positions : Front: L C R, Side: L R, LFE
Sampling rate : 48.0 kHz
Frame rate : 31.250 FPS (1536 spf)
Compression mode : Lossy
Stream size : 356 MiB (13%)
Language : English
Default : No
Forced : No

Text #1
ID : 5
Format : UTF-8
Codec ID : S_TEXT/UTF8
Codec ID/Info : UTF-8 Plain Text
Title : Forced
Language : Russian
Default : Yes
Forced : No

Text #2
ID : 6
Format : UTF-8
Codec ID : S_TEXT/UTF8
Codec ID/Info : UTF-8 Plain Text
Title : Full
Language : Russian
Default : No
Forced : No

Text #3
ID : 7
Format : UTF-8
Codec ID : S_TEXT/UTF8
Codec ID/Info : UTF-8 Plain Text
Title : Full
Language : English
Default : No
Forced : No

Text #4
ID : 8
Format : UTF-8
Codec ID : S_TEXT/UTF8
Codec ID/Info : UTF-8 Plain Text
Title : SDH
Language : English
Default : No
Forced : No

Menu
00:00:00.000 : :Chapter 01
00:05:00.550 : :Chapter 02
00:09:34.365 : :Chapter 03
00:12:33.711 : :Chapter 04
00:18:06.960 : :Chapter 05
00:21:08.642 : :Chapter 06
00:25:57.263 : :Chapter 07
00:30:19.817 : :Chapter 08
00:35:45.100 : :Chapter 09
00:42:06.480 : :Chapter 10
00:45:49.703 : :Chapter 11
00:49:13.282 : :Chapter 12
00:55:03.631 : :Chapter 13
00:57:58.891 : :Chapter 14
01:03:01.068 : :Chapter 15
01:08:44.869 : :Chapter 16
01:12:01.108 : :Chapter 17
01:19:14.622 : :Chapter 18
01:23:03.811 : :Chapter 19
01:26:36.356 : :Chapter 20
01:31:44.916 : :Chapter 21
01:35:31.684 : :Chapter 22
01:40:05.416 : :Chapter 23
01:45:13.806 : :Chapter 24
01:51:12.414 : :Chapter 25
Релиз от:

Автор релиза:

piratbit.org



Скачать Почему он? через торрент http://s020.radikal.ru/i721/1703/cd/07abbb408d5d.jpg Скачать фильм Почему он? через торрент бесплантно в хорошем качестве Описание: Строгий глава семейства, проповедующий идеалы морали и высокие профессиональные стандарты, пускается во все тяжкие после ... 9.5 10 46
Info! Золотая раздача, скачанное не засчитывается.
Торрент: Зарегистрирован [2017-04-21 21:13] · скачан: 1 148 раз
Статус: √ проверено
Размер: 2.59 GB
Как cкачать? Как скачать Почему он? через торрент | UTorrent



Последний раз редактировалось: Enigma2010 (2017-04-21 21:13), всего редактировалось 2 раз(а)

28-11-2019 20:33  

Отключить всю рекламу на сайте


26-03-2017 14:23 Почему он? Скачать торрент  

вполне себе нормальный фильмpiratbit.org



28-03-2017 16:10 Почему он? Скачать торрент  

Прыгает воспроизведение, пропуская отрывки. Пробовал на нескольких плеерах, картина та же самая.piratbit.org



16-04-2017 19:35 Почему он? Скачать торрент  

Очень веселый фильм, смотрел с девушкой обоим понравилось + к просмотру.piratbit.org



21-04-2017 11:25 Почему он? Скачать торрент  

редкосная хрень, не стоит и минуты вашего времени , хотя если в черепушке пусто то можно и глянуть.piratbit.org



23-04-2017 18:46 Почему он? Скачать торрент  

В одном эпизоде я реально ржал во весь голос, хотя в моей голове не пусто, голова у "мну" тяжелая. Детей нужно держать подальше от экрана. Это ведь комедия "маде ин сшп" -трешь, маты, пошлятина, но смотреть можно.piratbit.org



28-04-2017 12:56 Почему он? Скачать торрент  

Американский пирог продолжение... :)piratbit.org



08-05-2017 18:07 Почему он? Скачать торрент  

на 1 разpiratbit.org



    Дорогой пользователь! Огромная просьба, поблагодарите релизера, оцените раздачу и оставьте свои комментарий, если Вы скачали Почему он? через торрент бесплатно! Внесите свою лепту в развитие PiratBit!
    Комментировать посты могут только пользователи прошедшие не сложную регистрацию
    Показать сообщения:    

    Почему он? через торрент
    Скачать бесплатно Почему он?
    Почему он? скачать торрент
    Почему он? смотреть онлайн
    Cкачать фильм Почему он? бесплатно
    Почему он? скачать торрент в хорошем качестве
    Почему он? смотреть онлайн бесплатно в хорошем качестве


    Вы не можете начинать темы
    Вы не можете отвечать на сообщения
    Вы не можете редактировать свои сообщения
    Вы не можете удалять свои сообщения
    Вы не можете голосовать в опросах
    Вы не можете прикреплять файлы к сообщениям
    Вы можете скачивать файлы