Доктор Стрэндж

Лицензия

Добыча

Дубляж

Уэнсдэй

1 сезон

Тор

Дубляж

В эфире

Дубляж

Там, где раки поют

MVO

Властелин колец

1 сезон

Deluxe

pack

Рекомендуем

30

Пиратка

ВАЖНО

ВАЖНО

Ghostwire

Пиратка

jed

RePack

nioh2

RePack

RDR2

RePack

NEED FOR SPEED™ PAYBACK

RePack

скачать торрент

Кинопоиск HD

Острые козырьки 6 сезон

6 сезон

FAR CRY 6

RePack

скачать торрент

Лицензия

скачать торрент

MVO

1

1 сезон

скачать торрент

1 сезон

скачать торрент

Лицензия

  

Черное брюхо тарантула / Black Belly of the Tarantula (La Tarantola Dal Ventre Nero) (Паоло Кавара) [1971, ужасы, триллер, детектив, BDRip 720p от еnvy / NNNB] VO

Черное брюхо тарантула через торрент piratbit.org

Качают: 2 [ 0 KB/s ]
Размер: 7 GB | Добавлен: 5 лет 8 мес. назад | Торрент скачан:31 раз
Смотреть онлайн | Скачать   

20-03-2017 08:31 Черное брюхо тарантула Скачать торрент  

Информация Описание

Русское название: Черное Брюхо Тарантула
Оригинальное название: Black Belly of the Tarantula (La Tarantola Dal Ventre Nero)
Год выхода: 1971
Жанр: ужасы, триллер, детектив
Режиссер: Паоло Кавара
Выпущено: Италия, Франция
Продолжительность: 01:36:52
Перевод: Любительский одноголосый
В ролях: Джанкарло Джаннини, Клодин Оже, Барбара Буше, Росселла Фальк, Сильвано Транквилли, Барбара Бах, Стефания Сандрелли
Описание:

Этот фильм - классика джалло-триллера, популярного в Европе в 70-х годах … Женщину убивают весьма жестоким способом: сначала втыкают ей в шею иглу с парализующим ядом, а затем вспарывают живот. Все подозрения падают на мужа, и тот сам начинает расследование. Со стороны властей убийцу ищет инспектор Теллини (Джанкарло Джанини). А убийца, тем временем убивает ещё несколько человек. Причем он действует как паук-тарантул: сначала парализует жертву, а затем убивает её…


Файл

Качество: BDRip 720p (исходник Blu-Ray 1080p)
Формат: MKV
Видео: 1272x720, 9770 Кбит/сек, 23,976 кадр/сек, AVC, x264, High@L4.1, 16:9, 0.445 Бит/[Пиксели*Кадры]
Аудио 1: AC-3, 192 Кбит/сек, 2 канала(ов), 48,0 КГц - Любительский одноголосый, Stalk / Русский
Аудио 2: AC-3, 384 Кбит/сек, 2 канала(ов), 48,0 КГц - Дублированный / Немецкий
Субтитры: Русские | Полные, Английские | Полные
Форсированные субтитры: Нет
Чаптеры (Главы): Нет






Автор Рипа: Группа:


Format : Matroska
Format version : Version 2
File size : 7.00 GiB
Duration : 1 h 36 min
Overall bit rate : 10.3 Mb/s
Movie name : Black Belly of the Tarantula.(1971).BDRip.720p.[envy]
Encoded date : UTC 2017-03-20 08:17:38
Writing application : mkvmerge v5.8.0 ('No Sleep / Pillow') built on Sep 2 2012 15:37:04
Writing library : libebml v1.2.3 + libmatroska v1.3.0

Video
ID : 1
Format : AVC
Format/Info : Advanced Video Codec
Format profile : High@L4.1
Format settings, CABAC : Yes
Format settings, ReFrames : 9 frames
Codec ID : V_MPEG4/ISO/AVC
Duration : 1 h 36 min
Bit rate : 9 770 kb/s
Width : 1 272 pixels
Height : 720 pixels
Display aspect ratio : 16:9
Frame rate mode : Constant
Frame rate : 23.976 (24000/1001) FPS
Color space : YUV
Chroma subsampling : 4:2:0
Bit depth : 8 bits
Scan type : Progressive
Bits/(Pixel*Frame) : 0.445
Stream size : 6.47 GiB (92%)
Title : Black Belly of the Tarantula.(1971).BDRip.720p.[envy]
Writing library : x264 core 148 r2744 b97ae06
Encoding settings : cabac=1 / ref=9 / deblock=1:-3:-3 / analyse=0x3:0x133 / me=umh / subme=11 / psy=1 / psy_rd=1.00:0.00 / mixed_ref=1 / me_range=32 / chroma_me=1 / trellis=2 / 8x8dct=1 / cqm=0 / deadzone=21,11 / fast_pskip=0 / chroma_qp_offset=-2 / threads=12 / lookahead_threads=1 / sliced_threads=0 / nr=0 / decimate=1 / interlaced=0 / bluray_compat=0 / constrained_intra=0 / bframes=5 / b_pyramid=2 / b_adapt=2 / b_bias=0 / direct=3 / weightb=1 / open_gop=0 / weightp=2 / keyint=240 / keyint_min=23 / scenecut=40 / intra_refresh=0 / rc=2pass / mbtree=0 / bitrate=9770 / ratetol=2.0 / qcomp=0.60 / qpmin=0 / qpmax=69 / qpstep=4 / cplxblur=20.0 / qblur=0.5 / ip_ratio=1.40 / pb_ratio=1.30 / aq=1:0.95
Language : English
Default : Yes
Forced : No

Audio #1
ID : 2
Format : AC-3
Format/Info : Audio Coding 3
Mode extension : CM (complete main)
Format settings, Endianness : Big
Codec ID : A_AC3
Duration : 1 h 36 min
Bit rate mode : Constant
Bit rate : 192 kb/s
Channel(s) : 2 channels
Channel positions : Front: L R
Sampling rate : 48.0 kHz
Frame rate : 31.250 FPS (1536 spf)
Bit depth : 16 bits
Compression mode : Lossy
Stream size : 133 MiB (2%)
Title : VO Stalk
Language : Russian
Default : Yes
Forced : No

Audio #2
ID : 3
Format : AC-3
Format/Info : Audio Coding 3
Mode extension : CM (complete main)
Format settings, Endianness : Big
Codec ID : A_AC3
Duration : 1 h 36 min
Bit rate mode : Constant
Bit rate : 384 kb/s
Channel(s) : 2 channels
Channel positions : Front: L R
Sampling rate : 48.0 kHz
Frame rate : 31.250 FPS (1536 spf)
Bit depth : 16 bits
Compression mode : Lossy
Stream size : 266 MiB (4%)
Title : Ger
Language : German
Default : No
Forced : No

Text #1
ID : 4
Format : UTF-8
Codec ID : S_TEXT/UTF8
Codec ID/Info : UTF-8 Plain Text
Title : Rus full
Language : Russian
Default : No
Forced : No

Text #2
ID : 5
Format : UTF-8
Codec ID : S_TEXT/UTF8
Codec ID/Info : UTF-8 Plain Text
Title : Eng full
Language : English
Default : No
Forced : No




Скачать Черное брюхо тарантула через торрент http://img11.lostpic.net/2017/03/20/c9d09005d34f81bda729ebd0a67375ac.png Скачать, смотреть онлайн Черное брюхо тарантула бесплантно в хорошем качестве ОписаниеРусское название: Черное Брюхо ТарантулаОригинальное название: Black Belly of the Tarantula (La Tarantola Dal Ventre Nero)Год ... 5.7 10 3
Info! Золотая раздача, скачанное не засчитывается.
Торрент: Зарегистрирован [2017-03-20 08:31] · скачан: 31 раз
Статус: √ проверено
Размер: 7 GB
Как cкачать? Как скачать Черное брюхо тарантула через торрент | UTorrent

28-11-2019 20:33  


Отключить вcю реклaмy на сайте, в т.ч. и в плеере онлайн просмотра!

20-03-2017 08:41 Черное брюхо тарантула Скачать торрент  

x264 [info]: frame I:810 Avg QP:16.16 size:156834
x264 [info]: frame P:33626 Avg QP:18.48 size: 91464
x264 [info]: frame B:104932 Avg QP:20.64 size: 37122



    Дорогой пользователь! Огромная просьба, поблагодарите релизера, оцените раздачу и оставьте свои комментарий, если Вы скачали Черное брюхо тарантула через торрент бесплатно!!
    Комментировать посты могут только пользователи прошедшие не сложную регистрацию
    Показать сообщения:    


    Черное брюхо тарантула через торрент
    Скачать бесплатно Черное брюхо тарантула
    Черное брюхо тарантула скачать торрент
    Черное брюхо тарантула смотреть онлайн
    Cкачать фильм Черное брюхо тарантула бесплатно
    Черное брюхо тарантула скачать торрент в хорошем качестве
    Черное брюхо тарантула смотреть онлайн бесплатно в хорошем качестве
    Вы не можете начинать темы
    Вы не можете отвечать на сообщения
    Вы не можете редактировать свои сообщения
    Вы не можете удалять свои сообщения
    Вы не можете голосовать в опросах
    Вы не можете прикреплять файлы к сообщениям
    Вы можете скачивать файлы
    Черное брюхо тарантула / Black Belly of the Tarantula [1971, ужасы, триллер, детектив, BDRip 720p от еnvy / NNNB] VO смотреть онлайн, скачать торрент picoco.icu