2 сезон

iTunes

MVO

1

2 сезон

iTunes

iTunes

1 сезон

RePack

30

Новинка

ВАЖНО

ИГРА 18+

pack

RePack

MK11
pack

Легкие деньги

RePack

jed

RePack

fifa19

RePack

RDR2

RePack

NEED FOR SPEED™ PAYBACK

4 сезон

9 сезон

Бесстыжие 9 сезон

Все сериалы

все сериалы на PB.wtf

RePack

FAR CRY 5

Anonymous, доброй ночи, мы не успеваем собрать деньги на оплату серверов за декабрь и январь, помогите нам пожалуйста в это трудное время. В качестве благодарности мы отключим Вам всю рекламу на сайте (укажите свой ник в строку Ваше имя)!

×
  
Magnet ссылка

Новые русские сенсации - Человек Путина (1-2 серии из 2) (Денис Бугаев) [2017 г., Документальный, ТВ-шоу, расследование, HDTVRip, Русский] R.G.Resident piratbit.org

Скачать  

20-03-2017 12:35 Новые русские сенсации - Человек Путина Скачать торрент  

Новые русские сенсации - Человек Путина
Год выпуска: 2017
Страна: Россия, ООО "ППК"
Жанр: Документальный, ТВ-шоу, расследование
Продолжительность:2 х ~ 00:45:00

Описание:Все, что знает о президенте только он! Все, что еще никогда не показывали на телевидении! Градус откровений будет зашкаливать! Все, что хотят услышать одни, и мечтают увидеть другие. Как живет и работает президент России?

Качество: HDTVRip [HDTV 1080i]
Формат: AVI
Видео кодек: XviD
Аудио кодек: AC3
Видео: 720x400 (1.80:1), 25 fps, XviD build 73 ~1511 kbps avg, 0.21 bit/pixel
Аудио: 48 kHz, AC3 Dolby Digital, 2/0 (L,R) ch, ~192.00 kbps avg

Релиз от: ruslanishe

General
Complete name : Novye.russkie.sensacii.Chelovek.Putina.XviD.2017.HDTVRip.R.G.Resident
001.avi
Format : AVI
Format/Info : Audio Video Interleave
File size : 550 MiB
Duration : 44mn 56s
Overall bit rate : 1 713 Kbps
Director : ruslanishe
Writing application : VirtualDubMod 1.5.10.3 | www.virtualdub-fr.org || (build 2550/release)
Copyright : R.G.Resident

Video
ID : 0
Format : MPEG-4 Visual
Format profile : Advanced Simple@L5
Format settings, BVOP : 2
Format settings, QPel : No
Format settings, GMC : No warppoints
Format settings, Matrix : Custom
Codec ID : XVID
Codec ID/Hint : XviD
Duration : 44mn 56s
Bit rate : 1 511 Kbps
Width : 720 pixels
Height : 400 pixels
Display aspect ratio : 16:9
Frame rate : 25.000 fps
Color space : YUV
Chroma subsampling : 4:2:0
Bit depth : 8 bits
Scan type : Progressive
Compression mode : Lossy
Bits/(Pixel*Frame) : 0.210
Stream size : 486 MiB (88%)
Writing library : XviD 73

Audio
ID : 1
Format : AC-3
Format/Info : Audio Coding 3
Mode extension : CM (complete main)
Format settings, Endianness : Big
Codec ID : 2000
Duration : 44mn 56s
Bit rate mode : Constant
Bit rate : 192 Kbps
Channel(s) : 2 channels
Channel positions : Front: L R
Sampling rate : 48.0 KHz
Bit depth : 16 bits
Compression mode : Lossy
Stream size : 61.7 MiB (11%)
Alignment : Split accross interleaves
Interleave, duration : 40 ms (1.00 video frame)
Interleave, preload duration : 500 ms

piratbit.org



Скачать
Чтобы иметь возможность скачивать с Торрент Трекера, нужно Зарегистрироваться

Как скачивать  ·  Рейтинг и ограничения



Последний раз редактировалось: ruslanishe (2017-03-26 17:49), всего редактировалось 13 раз(а)

28-11-2019 20:33  

Отключить всю рекламу на сайте


20-03-2017 14:12 Новые русские сенсации - Человек Путина Скачать торрент  

Добавлена 2 серия piratbit.org



28-03-2017 17:13 Новые русские сенсации - Человек Путина Скачать торрент  

сиды висят..но докачать не могу piratbit.org



    Дорогой пользователь! Огромная просьба, поблагодарите релизера, оцените раздачу и оставьте свои комментарий, если Вы скачали Новые русские сенсации - Человек Путина через торрент бесплатно! Внесите свою лепту в развитие PiratBit!
    Комментировать посты могут только пользователи прошедшие не сложную регистрацию
    Показать сообщения:    

    Новые русские сенсации - Человек Путина через торрент
    Скачать бесплатно Новые русские сенсации - Человек Путина
    Новые русские сенсации - Человек Путина скачать торрент
    Новые русские сенсации - Человек Путина смотреть онлайн
    Cкачать фильм Новые русские сенсации - Человек Путина бесплатно
    Новые русские сенсации - Человек Путина скачать торрент в хорошем качестве
    Новые русские сенсации - Человек Путина смотреть онлайн бесплатно в хорошем качестве


    Вы не можете начинать темы
    Вы не можете отвечать на сообщения
    Вы не можете редактировать свои сообщения
    Вы не можете удалять свои сообщения
    Вы не можете голосовать в опросах
    Вы не можете прикреплять файлы к сообщениям
    Вы не можете скачивать файлы