1 сезон

3 сезон

iTunes

1

iTunes

DUB Netflix

iTunes

13

1 сезон

RePack

30

Deluxe

pack

Легкие деньги

ВАЖНО

ИГРА 18+

pack

RePack

MK11

RePack

jed

RePack

fifa19

RePack

RDR2

RePack

NEED FOR SPEED™ PAYBACK

4 сезон

9 сезон

Бесстыжие 9 сезон

Все сериалы

все сериалы на PB.wtf

RePack

FAR CRY 5

Anonymous, доброй ночи, мы не успеваем до 1 числа собрать деньги на оплату серверов, помогите нам пожалуйста в это трудное время. В качестве благодарности мы отключим Вам всю рекламу на сайте (укажите свой ник в строку Ваше имя)!

×
  
Magnet ссылка

Новогодний корпоратив / Office Christmas Party (Джош Гордон , Уилл Спек) [2016, комедия, BDRip-AVC] Дубляж - [Лицензия] от ExKinoRay piratbit.org

Новогодний корпоратив через торрент piratbit.org

Размер: 1.81 GB | Добавлен: 4 года 2 мес. назад | Торрент скачан:600 раз
Скачать  

21-03-2017 03:02 Новогодний корпоратив Скачать торрент  

«Отжигай, чтобы не уволили» Информация о фильме
Название: Новогодний корпоратив
Оригинальное название: Office Christmas Party
Год выпуска: 2016
Страна: США
Студия: Bluegrass Films, DreamWorks Pictures, DreamWorks SKG
Жанр: Комедия
Продолжительность: 01:45:08
Перевод: Дублированный | Лицензия Blu-ray EUR
Субтитры: Русские (forced, full), английские (full)
Режиссер: Джош Гордон, Уилл Спек
В ролях: Джейсон Бейтмен, Оливия Манн, ТиДжей Миллер, Дженнифер Энистон, Кейт МакКиннон, Кортни Б. Вэнс, Джиллиан Белл, Роб Кордри, Ванесса Байер, Рэндолл Парк

Описание: Когда сестра героя, генеральный директор компании, угрожает брату закрыть его филиал, Клей и его помощник Джош Паркер понимают, что единственный шанс спасти филиал от краха — уговорить влиятельного Уолтера Дэвиса купить их услуги и заключить контракт. Друзья решают закатить настоящую новогоднюю вечеринку в офисе и пригласить туда Уолтера, чтобы пообщаться в неформальной обстановке. Этот корпоратив все запомнят надолго! Однако праздник выходит из-под контроля...

rating

Файл
Качество: BDRip (AVC)
Видео: MPEG-4 AVC, 1024x428 (2.40:1), 24.000 fps, ~1561 kbps avg, 0.148 bit/pixel
Аудио №1: AC3 / 5.1 / 48 kHz / 448 kbps / - дубляж
Аудио №2: AC3 / 5.1 / 48 kHz / 448 kbps / - английский
General
Unique ID : 191487201402512439233813738535696835819 (0x900F17F0960338368BBC277FB6A5A4EB)
Complete name : D:\Office.Christmas.Party.2016.D.BDRip.AVC.ExKinoRay.mkv
Format : Matroska
Format version : Version 2
File size : 1.81 GiB
Duration : 1 h 45 min
Overall bit rate : 2 459 kb/s
Movie name : Office Christmas Party 2016 from ExKinoRay
Encoded date : UTC 2017-04-03 20:28:39
Writing application : mkvmerge v5.8.0 ('No Sleep / Pillow') built on Sep 2 2012 15:37:04
Writing library : libebml v1.2.3 + libmatroska v1.3.0

Video
ID : 1
Format : AVC
Format/Info : Advanced Video Codec
Format profile : High@L4.1
Format settings, CABAC : Yes
Format settings, ReFrames : 12 frames
Codec ID : V_MPEG4/ISO/AVC
Duration : 1 h 45 min
Bit rate : 1 561 kb/s
Width : 1 024 pixels
Height : 428 pixels
Display aspect ratio : 2.40:1
Frame rate mode : Constant
Frame rate : 24.000 FPS
Color space : YUV
Chroma subsampling : 4:2:0
Bit depth : 8 bits
Scan type : Progressive
Bits/(Pixel*Frame) : 0.148
Stream size : 1.11 GiB (62%)
Title : Enigma
Writing library : x264 core 144 r2525 40bb568
Encoding settings : cabac=1 / ref=12 / deblock=1:-3:-3 / analyse=0x3:0x113 / me=umh / subme=10 / psy=1 / psy_rd=1.02:0.05 / mixed_ref=1 / me_range=32 / chroma_me=1 / trellis=2 / 8x8dct=1 / cqm=0 / deadzone=21,11 / fast_pskip=1 / chroma_qp_offset=-3 / threads=12 / lookahead_threads=2 / sliced_threads=0 / nr=0 / decimate=1 / interlaced=0 / bluray_compat=0 / constrained_intra=0 / bframes=9 / b_pyramid=2 / b_adapt=2 / b_bias=0 / direct=3 / weightb=1 / open_gop=0 / weightp=2 / keyint=240 / keyint_min=24 / scenecut=40 / intra_refresh=0 / rc_lookahead=40 / rc=2pass / mbtree=0 / bitrate=1561 / ratetol=1.0 / qcomp=0.60 / qpmin=0 / qpmax=51 / qpstep=4 / cplxblur=20.0 / qblur=0.5 / vbv_maxrate=50000 / vbv_bufsize=62500 / nal_hrd=none / filler=0 / ip_ratio=1.40 / pb_ratio=1.30 / aq=1:0.80
Language : English
Default : Yes
Forced : No
Color range : Limited
Color primaries : BT.709
Transfer characteristics : BT.709
Matrix coefficients : BT.709

Audio #1
ID : 2
Format : AC-3
Format/Info : Audio Coding 3
Mode extension : CM (complete main)
Format settings, Endianness : Big
Codec ID : A_AC3
Duration : 1 h 45 min
Bit rate mode : Constant
Bit rate : 448 kb/s
Channel(s) : 6 channels
Channel positions : Front: L C R, Side: L R, LFE
Sampling rate : 48.0 kHz
Frame rate : 31.250 FPS (1536 spf)
Compression mode : Lossy
Stream size : 337 MiB (18%)
Title : Dub (Лицензия Blu-ray EUR)
Language : Russian
Default : Yes
Forced : No

Audio #2
ID : 3
Format : AC-3
Format/Info : Audio Coding 3
Mode extension : CM (complete main)
Format settings, Endianness : Big
Codec ID : A_AC3
Duration : 1 h 45 min
Bit rate mode : Constant
Bit rate : 448 kb/s
Channel(s) : 6 channels
Channel positions : Front: L C R, Side: L R, LFE
Sampling rate : 48.0 kHz
Frame rate : 31.250 FPS (1536 spf)
Compression mode : Lossy
Stream size : 337 MiB (18%)
Language : English
Default : No
Forced : No

Text #1
ID : 4
Format : UTF-8
Codec ID : S_TEXT/UTF8
Codec ID/Info : UTF-8 Plain Text
Title : Forced
Language : Russian
Default : Yes
Forced : No

Text #2
ID : 5
Format : UTF-8
Codec ID : S_TEXT/UTF8
Codec ID/Info : UTF-8 Plain Text
Title : Full
Language : Russian
Default : No
Forced : No

Text #3
ID : 6
Format : UTF-8
Codec ID : S_TEXT/UTF8
Codec ID/Info : UTF-8 Plain Text
Language : English
Default : No
Forced : No

Menu
00:00:00.000 : en:Chapter 01
00:08:02.666 : en:Chapter 02
00:12:26.291 : en:Chapter 03
00:22:25.208 : en:Chapter 04
00:28:46.083 : en:Chapter 05
00:32:00.583 : en:Chapter 06
00:39:18.333 : en:Chapter 07
00:48:50.333 : en:Chapter 08
00:54:02.125 : en:Chapter 09
00:59:19.291 : en:Chapter 10
01:04:26.083 : en:Chapter 11
01:10:02.333 : en:Chapter 12
01:15:31.833 : en:Chapter 13
01:20:58.125 : en:Chapter 14
01:26:23.791 : en:Chapter 15
01:34:44.458 : en:Chapter 16
01:39:13.875 : en:Chapter 17
Релиз от:

Автор релиза:

piratbit.org



Скачать Новогодний корпоратив через торрент http://s008.radikal.ru/i305/1703/24/8f2ca31974e8.jpg Скачать фильм Новогодний корпоратив через торрент бесплантно в хорошем качестве Описание: Когда сестра героя, генеральный директор компании, угрожает брату закрыть его филиал, Клей и его помощник Джош Паркер понимают, ... 9.6 10 25
Info! Золотая раздача, скачанное не засчитывается.
Торрент: Зарегистрирован [2017-04-03 21:02] · скачан: 600 раз
Статус: √ проверено
Размер: 1.81 GB
Как cкачать? Как скачать Новогодний корпоратив через торрент | UTorrent

% Раздел Тема Автор DL S | L
Фильмы (Blu-ray, BD-Remux, HDDVD) [ 23.86 GB ] Новогодний корпоратив / Office Christmas Party [2016 BDRemux 1080р от ExKinoRay] Russian Mafia Скачать
1 | 0

28-11-2019 20:33  

Отключить всю рекламу на сайте

04-04-2017 07:43 Новогодний корпоратив Скачать торрент  

НАИТУПЕЙШИЙ ФИЛЬМ.piratbit.org



05-04-2017 19:31 Новогодний корпоратив Скачать торрент  

Отличное кино, кто не работал в больших компаниях, тот не догонит!!! На одном дыхании. piratbit.org



    Дорогой пользователь! Огромная просьба, поблагодарите релизера, оцените раздачу и оставьте свои комментарий, если Вы скачали Новогодний корпоратив через торрент бесплатно! Внесите свою лепту в развитие PiratBit!
    Комментировать посты могут только пользователи прошедшие не сложную регистрацию
    Показать сообщения:    

    Новогодний корпоратив через торрент
    Скачать бесплатно Новогодний корпоратив
    Новогодний корпоратив скачать торрент
    Новогодний корпоратив смотреть онлайн
    Cкачать фильм Новогодний корпоратив бесплатно
    Новогодний корпоратив скачать торрент в хорошем качестве
    Новогодний корпоратив смотреть онлайн бесплатно в хорошем качестве


    Вы не можете начинать темы
    Вы не можете отвечать на сообщения
    Вы не можете редактировать свои сообщения
    Вы не можете удалять свои сообщения
    Вы не можете голосовать в опросах
    Вы не можете прикреплять файлы к сообщениям
    Вы можете скачивать файлы