2 сезон

iTunes

MVO

1

2 сезон

iTunes

iTunes

1 сезон

RePack

30

Новинка

ВАЖНО

ИГРА 18+

pack

RePack

MK11
pack

Легкие деньги

RePack

jed

RePack

fifa19

RePack

RDR2

RePack

NEED FOR SPEED™ PAYBACK

4 сезон

9 сезон

Бесстыжие 9 сезон

Все сериалы

все сериалы на PB.wtf

RePack

FAR CRY 5

Anonymous, доброй ночи, мы не успеваем собрать деньги на оплату серверов за декабрь и январь, помогите нам пожалуйста в это трудное время. В качестве благодарности мы отключим Вам всю рекламу на сайте (укажите свой ник в строку Ваше имя)!

×
  
Magnet ссылка

Атлантика: Самый необузданный океан на Земле / Atlantic: The Wildest Ocean on Earth / Серии 1 - 3 из 3 [2015 г., Документальный, HDRip, Профессиональный (двухголосый) AlexFilm] R.G.Resident piratbit.org

Скачать  

21-03-2017 16:05 Атлантика: Самый необузданный океан на Земле Скачать торрент  

Атлантика: Самый необузданный океан на Земле / Atlantic: The Wildest Ocean on Earth
Год выпуска: 2015
Страна: Великобритания
Жанр: Документальный
Продолжительность: 3 x ~ 00:58:00
Перевод: Профессиональный (двухголосый) AlexFilm

Описание: Из-за мощных течений, жестоких ураганов и подводных вулканов Атлантический океан невероятно богат и разнообразен, но выжить, приняв его вызов, в нём очень не просто. Новый документальный фильм BBC рассказывает о самом необузданном из всех океанов планеты Земля.

Качество: HDRip
Формат: AVI
Видео кодек: XviD
Аудио кодек: AC3
Видео: 720x400 (1.80:1), 25 fps, XviD build 73 ~1093 kbps avg, 0.15 bit/pixel
Аудио#1: 48 kHz, AC3 Dolby Digital, 2/0 (L,R) ch, ~192.00 kbps avg
Релиз от: ruslanishe

General
Atlantika.samyj.neobuzdannyj.okean.na.zemle.XviD.2015.R.G.Resident\001.avi
Format : AVI
Format/Info : Audio Video Interleave
File size : 550 MiB
Duration : 59mn 23s
Overall bit rate : 1 295 Kbps
Director : ruslanishe
Writing application : VirtualDubMod 1.5.10.3 | www.virtualdub-fr.org || (build 2550/release)
Copyright : R.G.Resident

Video
ID : 0
Format : MPEG-4 Visual
Format profile : Advanced Simple@L5
Format settings, BVOP : 2
Format settings, QPel : No
Format settings, GMC : No warppoints
Format settings, Matrix : Custom
Codec ID : XVID
Codec ID/Hint : XviD
Duration : 59mn 23s
Bit rate : 1 094 Kbps
Width : 720 pixels
Height : 400 pixels
Display aspect ratio : 16:9
Frame rate : 25.000 fps
Color space : YUV
Chroma subsampling : 4:2:0
Bit depth : 8 bits
Scan type : Progressive
Compression mode : Lossy
Bits/(Pixel*Frame) : 0.152
Stream size : 465 MiB (84%)
Writing library : XviD 73

Audio
ID : 1
Format : AC-3
Format/Info : Audio Coding 3
Mode extension : CM (complete main)
Format settings, Endianness : Big
Codec ID : 2000
Duration : 59mn 23s
Bit rate mode : Constant
Bit rate : 192 Kbps
Channel(s) : 2 channels
Channel positions : Front: L R
Sampling rate : 48.0 KHz
Bit depth : 16 bits
Compression mode : Lossy
Stream size : 81.6 MiB (15%)
Alignment : Split accross interleaves
Interleave, duration : 40 ms (1.00 video frame)
Interleave, preload duration : 500 ms

Перевод: Константин Кривоногов
Монтаж и сведение звука: Михаил Шорыгин
Озвучание: Владимир Курдов, Татьяна Манетина, Наталья Ланц
piratbit.org



Скачать
Чтобы иметь возможность скачивать с Торрент Трекера, нужно Зарегистрироваться

Как скачивать  ·  Рейтинг и ограничения

28-11-2019 20:33  

Отключить всю рекламу на сайте

    Дорогой пользователь! Огромная просьба, поблагодарите релизера, оцените раздачу и оставьте свои комментарий, если Вы скачали Атлантика: Самый необузданный океан на Земле через торрент бесплатно! Внесите свою лепту в развитие PiratBit!
    Комментировать посты могут только пользователи прошедшие не сложную регистрацию
    Показать сообщения:    

    Атлантика: Самый необузданный океан на Земле через торрент
    Скачать бесплатно Атлантика: Самый необузданный океан на Земле
    Атлантика: Самый необузданный океан на Земле скачать торрент
    Атлантика: Самый необузданный океан на Земле смотреть онлайн
    Cкачать фильм Атлантика: Самый необузданный океан на Земле бесплатно
    Атлантика: Самый необузданный океан на Земле скачать торрент в хорошем качестве
    Атлантика: Самый необузданный океан на Земле смотреть онлайн бесплатно в хорошем качестве


    Вы не можете начинать темы
    Вы не можете отвечать на сообщения
    Вы не можете редактировать свои сообщения
    Вы не можете удалять свои сообщения
    Вы не можете голосовать в опросах
    Вы не можете прикреплять файлы к сообщениям
    Вы не можете скачивать файлы