1 сезон

3 сезон

iTunes

1

iTunes

DUB Netflix

iTunes

13

1 сезон

RePack

30

Deluxe

pack

Легкие деньги

ВАЖНО

ИГРА 18+

pack

RePack

MK11

RePack

jed

RePack

fifa19

RePack

RDR2

RePack

NEED FOR SPEED™ PAYBACK

4 сезон

9 сезон

Бесстыжие 9 сезон

Все сериалы

все сериалы на PB.wtf

RePack

FAR CRY 5

Anonymous, добрый день, мы не успеваем до 1 числа собрать деньги на оплату серверов, помогите нам пожалуйста в это трудное время. В качестве благодарности мы отключим Вам всю рекламу на сайте (укажите свой ник в строку Ваше имя)!

×
  
Magnet ссылка

Ниже её губ / Below Her Mouth (Эйприл Маллен ) [2016, драма, WEB-DLRip] Любительский многоголосый (Синема УС) piratbit.org

Ниже её губ через торрент piratbit.org

Размер: 1.37 GB | Добавлен: 4 года 2 мес. назад | Торрент скачан:645 раз
Скачать  

22-03-2017 09:58 Ниже её губ Скачать торрент  

Ниже её губ / Below Her Mouth

Год выпуска: 2016
Выпущено: Канада / Distant Horizon, Ontario Media Development Corporation (OMDC)
Жанр: драма

Продолжительность: 01:31:57
Перевод: Любительский многоголосый (Синема УС)

ПРИМЕЧАНИЕ: ПРИСУТСТВУЕТ РЕКЛАМА!
Режиссер: Эйприл Маллен
В ролях: Erika Linder (Dallas), Натали Крилл (Jasmine), Себастьян Пижотт (Rile), Мэйко Нгуйен (Joslyn), Томми-Амбер Пири (Quinn), Мелани Лишман (Claire), Андреа Штефанчикова (M.J.), Daniela Barbosa (Desiree), Элиз Бауман (Bridget), Джослин Хадон (Model / Nikki), Карл Кэмпбелл (Security Guard), Анастасия Маринина (Bartender)
Описание:
История неожиданной любви между двумя девушками. Молодая Даллас влюбляется в красотку Жасмин, редактора модного журнала. Вскоре их интрижка перерастает во что-то большее
Рейтинг:
rating
Качество: WEB-DLRip
Формат: AVI
Видео: XviD , 720x304, 23.976 fps, 1734 Кбит/с
Аудио: AC3, 2 ch,, 384 Кбит/с 48 kHz
Сэмпл
General
Complete name :Below.Her.Mouth.2016.P.WEB-DLRip.14OOMB_KOSHARA.avi
Format : AVI
Format/Info : Audio Video Interleave
File size : 1.37 GiB
Duration : 1 h 31 min
Overall bit rate : 2 128 kb/s
Writing application : VirtualDubMod 1.5.10.2 (build 2540/release)
Writing library : VirtualDubMod build 2540/release

Video
ID : 0
Format : MPEG-4 Visual
Format profile : Advanced Simple@L5
Format settings, BVOP : 2
Format settings, QPel : No
Format settings, GMC : No warppoints
Format settings, Matrix : Default (MPEG)
Codec ID : XVID
Codec ID/Hint : XviD
Duration : 1 h 31 min
Bit rate : 1 735 kb/s
Width : 720 pixels
Height : 304 pixels
Display aspect ratio : 2.35:1
Frame rate : 23.976 (24000/1001) FPS
Color space : YUV
Chroma subsampling : 4:2:0
Bit depth : 8 bits
Scan type : Progressive
Compression mode : Lossy
Bits/(Pixel*Frame) : 0.331
Stream size : 1.11 GiB (82%)
Writing library : XviD 1.2.1 (UTC 2008-12-04)

Audio
ID : 1
Format : AC-3
Format/Info : Audio Coding 3
Mode extension : CM (complete main)
Format settings, Endianness : Big
Codec ID : 2000
Duration : 1 h 31 min
Bit rate mode : Constant
Bit rate : 384 kb/s
Channel(s) : 2 channels
Channel positions : Front: L R
Sampling rate : 48.0 kHz
Frame rate : 31.250 FPS (1536 spf)
Compression mode : Lossy
Stream size : 253 MiB (18%)
Alignment : Split accross interleaves
Interleave, duration : 42 ms (1.00 video frame)
Interleave, preload duration : 500 ms


piratbit.org



Скачать Ниже её губ через торрент http://i6.imageban.ru/out/2017/03/22/317df66a5206bf2c335324c592458539.jpg Скачать фильм Ниже её губ через торрент бесплантно в хорошем качестве Описание: История неожиданной любви между двумя девушками. Молодая Даллас влюбляется в красотку Жасмин, редактора модного журнала. Вскоре ... 8.1 10 21
Торрент: Зарегистрирован [2017-03-22 09:58] · скачан: 645 раз
Статус: T временная
Размер: 1.37 GB
Как cкачать? Как скачать Ниже её губ через торрент | UTorrent

28-11-2019 20:33  

Отключить всю рекламу на сайте

22-03-2017 10:21 Ниже её губ Скачать торрент  

ниже - только колени уже, судя по снимкам экранаpiratbit.org



22-03-2017 10:37 Ниже её губ Скачать торрент  

6-й скрин ппц ваще. теперь я знаю как бабы моют свою... piratbit.org



22-03-2017 13:02 Ниже её губ Скачать торрент  

я считаю такое популяризировать нельзя.
Авторов фильма на дыбу.piratbit.org



22-03-2017 14:09 Ниже её губ Скачать торрент  

Munhgauzen писал(а):

я считаю такое популяризировать нельзя.
Авторов фильма на дыбу.

согласенpiratbit.org



22-03-2017 18:11 Ниже её губ Скачать торрент  

Munhgauzen писал(а):

я считаю такое популяризировать нельзя.
Авторов фильма на дыбу.

piratbit.org



23-03-2017 04:38 Ниже её губ Скачать торрент  

больше лезбийской любви, а моралфагов в топку piratbit.org



23-03-2017 07:03 Ниже её губ Скачать торрент  

О, тема сисек раскрыта полностью - тут претензий нет.
А вот в остальном...

Ну говорят же, что мужиков в половину меньше баб :) на всех явно не хватает.piratbit.org



23-03-2017 14:23 Ниже её губ Скачать торрент  

Может в специализированный раздел раздачу перенести?piratbit.org



23-03-2017 15:21 Ниже её губ Скачать торрент  

VitalyRus писал(а):

Может в специализированный раздел раздачу перенести?

согласенpiratbit.org



    Дорогой пользователь! Огромная просьба, поблагодарите релизера, оцените раздачу и оставьте свои комментарий, если Вы скачали Ниже её губ через торрент бесплатно! Внесите свою лепту в развитие PiratBit!
    Комментировать посты могут только пользователи прошедшие не сложную регистрацию
    Показать сообщения:    

    Ниже её губ через торрент
    Скачать бесплатно Ниже её губ
    Ниже её губ скачать торрент
    Ниже её губ смотреть онлайн
    Cкачать фильм Ниже её губ бесплатно
    Ниже её губ скачать торрент в хорошем качестве
    Ниже её губ смотреть онлайн бесплатно в хорошем качестве


    Вы не можете начинать темы
    Вы не можете отвечать на сообщения
    Вы не можете редактировать свои сообщения
    Вы не можете удалять свои сообщения
    Вы не можете голосовать в опросах
    Вы не можете прикреплять файлы к сообщениям
    Вы можете скачивать файлы