1 сезон

3 сезон

iTunes

1

iTunes

DUB Netflix

iTunes

13

1 сезон

RePack

30

Deluxe

pack

Легкие деньги

ВАЖНО

ИГРА 18+

pack

RePack

MK11

RePack

jed

RePack

fifa19

RePack

RDR2

RePack

NEED FOR SPEED™ PAYBACK

4 сезон

9 сезон

Бесстыжие 9 сезон

Все сериалы

все сериалы на PB.wtf

RePack

FAR CRY 5

Anonymous, добрый вечер, мы не успеваем до 1 числа собрать деньги на оплату серверов, помогите нам пожалуйста в это трудное время. В качестве благодарности мы отключим Вам всю рекламу на сайте (укажите свой ник в строку Ваше имя)!

×
  
Magnet ссылка

Во имя любви и чести / For Love and Honor (Лори Линд) [2016 г., Драма, Комедия, HDTVRip, Любительский многоголосый (Пиратская студия дубляжа)] piratbit.org

Во имя любви и чести через торрент piratbit.org

Размер: 1.37 GB | Добавлен: 4 года 3 мес. назад | Торрент скачан:96 раз
Скачать  

22-03-2017 15:59 Во имя любви и чести Скачать торрент  

Во имя любви и чести / For Love and Honor
Год выпуска: 2016
Страна: Канада
Жанр: Драма, Комедия
Продолжительность: 01:24:11
Перевод: Любительский многоголосый (Пиратская студия дубляжа)
Субтитры: Отсутствуют.

Режиссер: Лори Линд



В ролях: Натали Браун, Джеймс Дентон, Шеппард Дентон, Крис Фаркуар, Рун Фу, Ребекка Лиддьярд, Дуэйн Мерфи, Джастин Джеймс Ремейкис

Описание: Ветерана армии и выпускника военной академии зовут вернуться работать в школу в качестве коменданта. У его начальницы иной взгляд на мир, и поэтому они мгновенно невзлюбили друг друга. Но, чтобы спасти академию, они соглашаются работать вместе, и с этого момента всё меняется. Смогут ли они работать сообща ради спасения школы? Действительно ли у них есть чувства друг к другу, или это просто воля обстоятельств?

Доп. информация: присутствуют аудио и видео вставки рекламы.

Качество: HDTVRip
Формат: AVI
Видео кодек: XviD
Аудио кодек: AC3
Видео: Xvid, 720x400, 1868 kbps,23.976 fps
Аудио: AC3, 2 ch, 448 kbps ,48.0 KHz



General
Complete name : H:\релизы.торрентфайл\For.love.and.honor.2016.P.HDTVRip.1400MB.avi
Format : AVI
Format/Info : Audio Video Interleave
File size : 1.37 GiB
Duration : 1h 24mn
Overall bit rate : 2 325 Kbps
Writing application : VirtualDubMod 1.5.10.2 (build 2540/release)
Writing library : VirtualDubMod build 2540/release

Video
ID : 0
Format : MPEG-4 Visual
Format profile : Advanced Simple@L5
Format settings, BVOP : 2
Format settings, QPel : No
Format settings, GMC : No warppoints
Format settings, Matrix : Default (MPEG)
Codec ID : XVID
Codec ID/Hint : XviD
Duration : 1h 24mn
Bit rate : 1 868 Kbps
Width : 720 pixels
Height : 400 pixels
Display aspect ratio : 16:9
Frame rate : 23.976 fps
Color space : YUV
Chroma subsampling : 4:2:0
Bit depth : 8 bits
Scan type : Progressive
Compression mode : Lossy
Bits/(Pixel*Frame) : 0.270
Stream size : 1.10 GiB (80%)
Writing library : XviD 1.2.1 (UTC 2008-12-04)

Audio
ID : 1
Format : AC-3
Format/Info : Audio Coding 3
Mode extension : CM (complete main)
Format settings, Endianness : Big
Codec ID : 2000
Duration : 1h 24mn
Bit rate mode : Constant
Bit rate : 448 Kbps
Channel(s) : 2 channels
Channel positions : Front: L R
Sampling rate : 48.0 KHz
Bit depth : 16 bits
Compression mode : Lossy
Stream size : 270 MiB (19%)
Alignment : Split accross interleaves
Interleave, duration : 42 ms (1.00 video frame)
Interleave, preload duration : 500 ms

piratbit.org



Скачать Во имя любви и чести через торрент http://i90.fastpic.ru/big/2017/0322/50/b2e07d01e08718908d51039eeae32850.jpg Скачать фильм Во имя любви и чести через торрент бесплантно в хорошем качестве Описание: Ветерана армии и выпускника военной академии зовут вернуться работать в школу в качестве коменданта. У его начальницы иной взгляд ... 5.5 10 2
Торрент: Зарегистрирован [2017-03-22 15:59] · скачан: 96 раз
Статус: T временная
Размер: 1.37 GB
Как cкачать? Как скачать Во имя любви и чести через торрент | UTorrent

28-11-2019 20:33  

Отключить всю рекламу на сайте

    Дорогой пользователь! Огромная просьба, поблагодарите релизера, оцените раздачу и оставьте свои комментарий, если Вы скачали Во имя любви и чести через торрент бесплатно! Внесите свою лепту в развитие PiratBit!
    Комментировать посты могут только пользователи прошедшие не сложную регистрацию
    Показать сообщения:    

    Во имя любви и чести через торрент
    Скачать бесплатно Во имя любви и чести
    Во имя любви и чести скачать торрент
    Во имя любви и чести смотреть онлайн
    Cкачать фильм Во имя любви и чести бесплатно
    Во имя любви и чести скачать торрент в хорошем качестве
    Во имя любви и чести смотреть онлайн бесплатно в хорошем качестве


    Вы не можете начинать темы
    Вы не можете отвечать на сообщения
    Вы не можете редактировать свои сообщения
    Вы не можете удалять свои сообщения
    Вы не можете голосовать в опросах
    Вы не можете прикреплять файлы к сообщениям
    Вы можете скачивать файлы