Лицензия

MVO

1

1 сезон

Лицензия

Лицензия

13

MVO

1 сезон

Deluxe Edition

pack

Рекомендуем

30

Repack

ВАЖНО

ВАЖНО

Ghostwire

RePack

jed

RePack

fifa19

RePack

RDR2

RePack

NEED FOR SPEED™ PAYBACK

RePack

Кинопоиск HD

 Острые козырьки 6 сезон

6 сезон

FAR CRY 6

RePack

Лицензия

MVO

1

1 сезон

1 сезон

Лицензия

  

Координаты неизвестны (Михаил Винярский) [1957, СССР, военный, DVDRip от AVP Studio]

Координаты неизвестны через торрент piratbit.org

Размер: 745 MB | Добавлен: 5 лет 6 мес. назад | Торрент скачан:14 раз
Смотреть онлайн Координаты неизвестны | Скачать   

27-03-2017 07:40 Координаты неизвестны Скачать торрент  

Координаты неизвестны
Страна: СССР
Производство: Одесская киностудия

Жанр: военный
Год выпуска: 1957
Продолжительность: 01:27:29

Перевод: Не требуется
Cубтитры: нет
Оригинальная аудиодорожка: русский

Режиссер: Михаил Винярский

В ролях:
Олег Жаков, Леонид Галлис, Эдуард Бредун, Юрий Прокопович, Надежда Чередниченко, Николай Яковченко, Евгений Котов, Николай Ключнев, Олег Мокшанцев, Степан Крылов, Виталий Кравченко...
Об актёрах подробней

Описание:
Два танкера "Урал" и "Кремль" с грузом авиационного бензина совершали рейс из Туапсе на Балтику, в Ленинград. Внезапно оба мирных судна были обстреляны фашистскими бомбардировщиками. Так для них началась война. Охваченный пламенем, погиб танкер "Урал". Из его экипажа на борт "Кремля" был подобран только радист Долинский. Несмотря на тяжелую обстановку, капитан "Кремля" Чалый и помполит Крутов решают доставить ценный груз к родным берегам.

Источник: DVD9 R5
Качество видео: DVDRip
Формат видео: AVI

Видео: 640x480 (4:3), 25 fps, XviD ~ 1053 kbps avg, 0.137 bit/pixel
Аудио: 48 kHz, MP3 2.0, 128 kbps

Раздача от:
Общее
Полное имя : Koordinaty.neizvestny.1957.DVDRip-745_[New-team]_by_AVP_Studio.avi
Формат : AVI
Формат/Информация : Audio Video Interleave
Размер файла : 745 Мбайт
Продолжительность : 1 ч. 27 м.
Общий поток : 1191 Кбит/сек
Программа кодирования : VirtualDubMod 1.5.10.3 | www.virtualdub-fr.org || (build 2550/release)
Библиотека кодирования : VirtualDubMod build 2550/release

Видео
Идентификатор : 0
Формат : MPEG-4 Visual
Профиль формата : Advanced Simple@L5
Параметр BVOP формата : 1
Параметр QPel формата : Нет
Параметр GMC формата : Без точки перехода
Параметр матрицы формата : Выборочная
Идентификатор кодека : XVID
Идентификатор кодека/Подсказка : XviD
Продолжительность : 1 ч. 27 м.
Битрейт : 1053 Кбит/сек
Ширина : 640 пикселей
Высота : 480 пикселей
Соотношение сторон : 4:3
Частота кадров : 25,000 кадров/сек
Цветовое пространство : YUV
Субдискретизация насыщенности : 4:2:0
Битовая глубина : 8 бит
Тип развёртки : Прогрессивная
Метод сжатия : С потерями
Бит/(Пиксели*Кадры) : 0.137
Размер потока : 659 Мбайт (88%)
Библиотека кодирования : XviD 73

Аудио
Идентификатор : 1
Формат : MPEG Audio
Версия формата : Version 1
Профиль формата : Layer 3
Идентификатор кодека : 55
Идентификатор кодека/Подсказка : MP3
Продолжительность : 1 ч. 27 м.
Вид битрейта : Постоянный
Битрейт : 128 Кбит/сек
Каналы : 2 канала
Частота : 48,0 КГц
Метод сжатия : С потерями
Размер потока : 80,1 Мбайт (11%)
Выравнивание : Соединение по промежуткам
Продолжительность промежутка : 40 мс. (1,00 видеокадр)
Время предзагрузки промежутка : 504 мс



Скачать Координаты неизвестны через торрент http://s013.radikal.ru/i324/1703/fb/fefc4f465bee.png Скачать, смотреть онлайн Координаты неизвестны бесплантно в хорошем качестве Описание:Два танкера "Урал" и "Кремль" с грузом авиационного бензина совершали рейс из Туапсе на Балтику, в Ленинград. Внезапно оба мирных ... 10 10 2
Info! Золотая раздача, скачанное не засчитывается.
Торрент: Зарегистрирован [2017-03-27 07:40] · скачан: 14 раз
Статус: √ проверено
Размер: 745 MB
Как cкачать? Как скачать Координаты неизвестны через торрент | UTorrent

% Раздел Тема Автор DL S | L
Кино СССР [ 1.09 GB ] Координаты неизвестны | | DVDRip-AVC от AVP Studio AVP Studio Скачать
1 | 0
Кино СССР [ 1.09 GB ] Координаты неизвестны | | DVDRip от AVP Studio AVP Studio Скачать
1 | 0

28-11-2019 20:33  

Отключить вcю реклaмy на сайте

    Дорогой пользователь! Огромная просьба, поблагодарите релизера, оцените раздачу и оставьте свои комментарий, если Вы скачали Координаты неизвестны через торрент бесплатно!!
    Комментировать посты могут только пользователи прошедшие не сложную регистрацию
    Показать сообщения:    


    Координаты неизвестны через торрент
    Скачать бесплатно Координаты неизвестны
    Координаты неизвестны скачать торрент
    Координаты неизвестны смотреть онлайн
    Cкачать фильм Координаты неизвестны бесплатно
    Координаты неизвестны скачать торрент в хорошем качестве
    Координаты неизвестны смотреть онлайн бесплатно в хорошем качестве
    Вы не можете начинать темы
    Вы не можете отвечать на сообщения
    Вы не можете редактировать свои сообщения
    Вы не можете удалять свои сообщения
    Вы не можете голосовать в опросах
    Вы не можете прикреплять файлы к сообщениям
    Вы можете скачивать файлы