2 сезон

iTunes

MVO

1

2 сезон

iTunes

iTunes

1 сезон

RePack

30

Новинка

ВАЖНО

ИГРА 18+

pack

RePack

MK11
pack

Легкие деньги

RePack

jed

RePack

fifa19

RePack

RDR2

RePack

NEED FOR SPEED™ PAYBACK

4 сезон

9 сезон

Бесстыжие 9 сезон

Все сериалы

все сериалы на PB.wtf

RePack

FAR CRY 5

Anonymous, доброй ночи, мы не успеваем собрать деньги на оплату серверов за декабрь и январь, помогите нам пожалуйста в это трудное время. В качестве благодарности мы отключим Вам всю рекламу на сайте (укажите свой ник в строку Ваше имя)!

×
  
Magnet ссылка

Николай II. Последняя воля императора (Людмила Снигирева, Татьяна Дмитракова) [2017 г., Документальный, история, HDTVRip, Русский] R.G.Resident piratbit.org

Скачать  

27-03-2017 15:25 Николай II. Последняя воля императора Скачать торрент  

Николай II. Последняя воля императора
Год выпуска: 2017
Страна: Россия, Первый канал, Медиа Конструктор
Жанр: Документальный, история
Продолжительность: 00:51:50
Язык: Русский

Режиссер: Людмила Снигирева, Татьяна Дмитракова

Описание: Ровно 100 лет назад в ночь со 2 на 3 марта по старому стилю в вагоне поезда на железнодорожной станции Псков император Николай II в присутствии министра двора и двух депутатов Государственной думы подписывает документ, в котором отрекается от престола. Так в одно мгновение в России пала монархия и оборвалась трехсотлетняя династия Романовых. В деле об отречении Николая II и сейчас, спустя 100 лет, много белых пятен. Ученые до сих пор спорят: действительно ли император отрекся от престола по своей воле, или его заставили? Долгое время основным поводом для сомнений был акт об отречении — простой листок формата А4, небрежно оформленный и подписанный карандашом. Кроме того, в 1917 году эта бумага исчезла, а нашлась только в 1929-м.

Качество: HDTVRip [благодарю за исходник 1080i нашего релизера White Smoke]
Формат: AVI
Видео кодек: XviD
Аудио кодек: AC3
Видео: 720x400 (1.80:1), 25 fps, XviD build 73 ~1282 kbps avg, 0.18 bit/pixel
Аудио#1: 48 kHz, AC3 Dolby Digital, 2/0 (L,R) ch, ~192.00 kbps avg
Релиз от: ruslanishe

General
:Nikolaj.II.Poslednjaja.volja.imperatora.XviD.2017.HDTVRip.R.G.Resident.avi
Format : AVI
Format/Info : Audio Video Interleave
File size : 550 MiB
Duration : 51mn 50s
Overall bit rate : 1 484 Kbps
Director : ruslanishe
Writing application : VirtualDubMod 1.5.10.3 | www.virtualdub-fr.org || (build 2550/release)
Copyright : R.G.Resident

Video
ID : 0
Format : MPEG-4 Visual
Format profile : Advanced Simple@L5
Format settings, BVOP : 2
Format settings, QPel : No
Format settings, GMC : No warppoints
Format settings, Matrix : Custom
Codec ID : XVID
Codec ID/Hint : XviD
Duration : 51mn 50s
Bit rate : 1 283 Kbps
Width : 720 pixels
Height : 400 pixels
Display aspect ratio : 16:9
Frame rate : 25.000 fps
Color space : YUV
Chroma subsampling : 4:2:0
Bit depth : 8 bits
Scan type : Progressive
Compression mode : Lossy
Bits/(Pixel*Frame) : 0.178
Stream size : 476 MiB (86%)
Writing library : XviD 73

Audio
ID : 1
Format : AC-3
Format/Info : Audio Coding 3
Mode extension : CM (complete main)
Format settings, Endianness : Big
Codec ID : 2000
Duration : 51mn 50s
Bit rate mode : Constant
Bit rate : 192 Kbps
Channel(s) : 2 channels
Channel positions : Front: L R
Sampling rate : 48.0 KHz
Bit depth : 16 bits
Compression mode : Lossy
Stream size : 71.2 MiB (13%)
Alignment : Split accross interleaves
Interleave, duration : 40 ms (1.00 video frame)
Interleave, preload duration : 500 ms

piratbit.org



Скачать
Чтобы иметь возможность скачивать с Торрент Трекера, нужно Зарегистрироваться

Как скачивать  ·  Рейтинг и ограничения



Последний раз редактировалось: ruslanishe (2017-03-27 17:10), всего редактировалось 3 раз(а)

28-11-2019 20:33  

Отключить всю рекламу на сайте

27-03-2017 16:39 Николай II. Последняя воля императора Скачать торрент  

Видимо Путен хочет в цари, б*ядь, под это дело ляпают это говно.piratbit.org



27-03-2017 18:17 Николай II. Последняя воля императора Скачать торрент  

opupokin писал(а):

Видимо Путен хочет в цари, б*ядь, под это дело ляпают это говно.

заплутал piratbit.org



    Дорогой пользователь! Огромная просьба, поблагодарите релизера, оцените раздачу и оставьте свои комментарий, если Вы скачали Николай II. Последняя воля императора через торрент бесплатно! Внесите свою лепту в развитие PiratBit!
    Комментировать посты могут только пользователи прошедшие не сложную регистрацию
    Показать сообщения:    

    Николай II. Последняя воля императора через торрент
    Скачать бесплатно Николай II. Последняя воля императора
    Николай II. Последняя воля императора скачать торрент
    Николай II. Последняя воля императора смотреть онлайн
    Cкачать фильм Николай II. Последняя воля императора бесплатно
    Николай II. Последняя воля императора скачать торрент в хорошем качестве
    Николай II. Последняя воля императора смотреть онлайн бесплатно в хорошем качестве


    Вы не можете начинать темы
    Вы не можете отвечать на сообщения
    Вы не можете редактировать свои сообщения
    Вы не можете удалять свои сообщения
    Вы не можете голосовать в опросах
    Вы не можете прикреплять файлы к сообщениям
    Вы не можете скачивать файлы