1 сезон

3 сезон

iTunes

1

iTunes

DUB Netflix

iTunes

13

1 сезон

RePack

30

Deluxe

pack

Легкие деньги

ВАЖНО

ИГРА 18+

pack

RePack

MK11

RePack

jed

RePack

fifa19

RePack

RDR2

RePack

NEED FOR SPEED™ PAYBACK

4 сезон

9 сезон

Бесстыжие 9 сезон

Все сериалы

все сериалы на PB.wtf

RePack

FAR CRY 5

Anonymous, добрый вечер, мы не успеваем до 1 числа собрать деньги на оплату серверов, помогите нам пожалуйста в это трудное время. В качестве благодарности мы отключим Вам всю рекламу на сайте (укажите свой ник в строку Ваше имя)!

×
  
Magnet ссылка

Охота на дикарей / Hunt for the Wilderpeople (Тайка Вайтити) [2016 г., драма, комедия, приключения, HDRip, Профессиональный многоголосый "Лицензия"] piratbit.org

Охота на дикарей через торрент piratbit.org

Размер: 2.04 GB | Добавлен: 4 года 2 мес. назад | Торрент скачан:113 раз
Скачать  

27-03-2017 18:29 Охота на дикарей Скачать торрент  

Охота на дикарей / Hunt for the Wilderpeople
Год выпуска: 2016
Страна: Новая Зеландия / Piki Films, Defender Films, Curious Film
Жанр: драма, комедия, приключения
Продолжительность: 01:40:58
Перевод: Профессиональный многоголосый (Лицензия)
Субтитры: Русские форсированные - вшитые

Режиссер: Тайка Вайтити

rating

В ролях: Сэм Нил, Джулиан Деннисон, Рима Те Вьята, Рэйчел Хаус, Tioreore Ngatai-Melbourne, Оскар Кайтли, Стэн Уокер, Майк Миноуг, Коэн Холлоуэй, Риз Дэрби

Описание: Рикки Бэйкер - упитанный городской хулиган. Сотрудница социальной службы Пола отвозит подростка в сельскую местность, где живёт единственная готовая принять его семья - Белла и её нелюдимый муж Гек. Когда Белла умирает и социальная защита собирается забрать Рикки, тот убегает в леса. Гек отправляется за ним. Сумасбродная Пола убеждена, что странный Гек слетел с катушек из-за смерти жены и похитил подростка. Она развязывает общенациональную охоту на мальчика и его «совратителя».

Качество: HDRip
Формат: AVI
Видео кодек: XviD
Аудио кодек: AC3
Видео: 720x304 (2.37:1), 24.000 fps, XviD build 50 ~2443 kbps avg, 0.47 bit/pixel
Аудио: 48 kHz, AC3 Dolby Digital, 3/2 (L,C,R,l,r) + LFE ch, ~448 kbps

Общее
Полное имя : F:\ФИЛЬМЫ\Охота на дикарей.2016.HDRip.avi
Формат : AVI
Формат/Информация : Audio Video Interleave
Профиль формата : OpenDML
Размер файла : 2,04 Гбайт
Продолжительность : 1 ч. 40 м.
Общий поток : 2898 Кбит/сек
Программа кодирования : VirtualDubMod 1.5.10.3 | www.virtualdub-fr.org || (build 2550/release)
Библиотека кодирования : VirtualDubMod build 2550/release

Видео
Идентификатор : 0
Формат : MPEG-4 Visual
Профиль формата : Advanced Simple@L5
Параметр BVOP формата : 1
Параметр QPel формата : Нет
Параметр GMC формата : Без точки перехода
Параметр матрицы формата : Default (MPEG)
Идентификатор кодека : XVID
Идентификатор кодека/Подсказка : XviD
Продолжительность : 1 ч. 40 м.
Битрейт : 2438 Кбит/сек
Ширина : 720 пикселей
Высота : 304 пикселя
Соотношение сторон : 2,35:1
Частота кадров : 24,000 кадра/сек
Цветовое пространство : YUV
Субдискретизация насыщенности : 4:2:0
Битовая глубина : 8 бит
Тип развёртки : Прогрессивная
Метод сжатия : С потерями
Бит/(Пиксели*Кадры) : 0.464
Размер потока : 1,72 Гбайт (84%)
Библиотека кодирования : XviD 1.2.1 (UTC 2008-12-04)

Аудио
Идентификатор : 1
Формат : AC-3
Формат/Информация : Audio Coding 3
Расширение режима : CM (complete main)
Параметр Endianness формата : Big
Идентификатор кодека : 2000
Продолжительность : 1 ч. 40 м.
Вид битрейта : Постоянный
Битрейт : 448 Кбит/сек
Каналы : 6 каналов
Расположение каналов : Front: L C R, Side: L R, LFE
Частота : 48,0 КГц
Частота кадров : 31,250 кадров/сек (1536 spf)
Битовая глубина : 16 бит
Метод сжатия : С потерями
Размер потока : 324 Мбайт (15%)
Выравнивание : Разделение по промежуткам
Продолжительность промежутка : 42 мс. (1,00 видеокадр)
Время предзагрузки промежутка : 500 мс.

piratbit.org



Скачать Охота на дикарей через торрент https://pic1.kartinco.top/images/11/nmff5.jpg Скачать фильм Охота на дикарей через торрент бесплантно в хорошем качестве Описание: Рикки Бэйкер - упитанный городской хулиган. Сотрудница социальной службы Пола отвозит подростка в сельскую местность, где живёт ... 8.4 10 9
Info! Золотая раздача, скачанное не засчитывается.
Торрент: Зарегистрирован [2017-03-27 18:29] · скачан: 113 раз
Статус: √ проверено
Размер: 2.04 GB
Как cкачать? Как скачать Охота на дикарей через торрент | UTorrent

% Раздел Тема Автор DL S | L
Фильмы 2016 [DVDrip, WEB-DLRip, HDrip] (DUB, MVO) [ 2.05 GB ] Охота на дикарей / Hunt for the Wilderpeople [2016 BDRip-AVC] DUB [] от ExKinoRay Enigma2010 Скачать
1 | 0
Фильмы с авторской озвучкой [ 1.47 GB ] Охота на дикарей / Hunt for the Wilderpeople [2016 BDRip] [AVO] killermax2013 Скачать
1 | 0
Фильмы (Blu-ray, BD-Remux, HDDVD) [ 26.74 GB ] Охота на дикарей / Hunt for the Wilderpeople [2016 BDRemux 1080p] от ExKinoRay / MVO / Russian Mafia Скачать
1 | 0
Фильмы с украинским озвучиванием [ 1.42 GB ] Охота на дикарей / Полювання на диких людей / Hunt for the Wilderpeople [2016 BDRip] [Ukr VO] killermax2013 Скачать
1 | 0
Фильмы [HD 720p, 1080p] (Хороший звук DUB, MVO) [ 11 GB ] Охота на дикарей / Hunt for the Wilderpeople [2016 BDRip 1080p] MVO [] -Lexx- Скачать
1 | 0
Фильмы 2016 [DVDrip, WEB-DLRip, HDrip] (DUB, MVO) [ 1.46 GB ] Охота на дикарей / Hunt for the Wilderpeople [2016 BDRip] многоголосный [] Twi7ter Скачать
1 | 0
Фильмы без перевода [ 26.49 GB ] Охота на дикарей / Hunt for the Wilderpeople [2016 BD Remux] [Оригинал] smaster Скачать
1 | 0

28-11-2019 20:33  

Отключить всю рекламу на сайте

24-01-2018 18:43 Охота на дикарей Скачать торрент  

Фильм полный трешак. Бред растянутый почти на два часа. Специально дотянул до конца, пытался понять что и где начнется инетересно.
Друзья, если у вас есть лишние никчемные два часа жизни посвятите их этому фильму... piratbit.org



    Дорогой пользователь! Огромная просьба, поблагодарите релизера, оцените раздачу и оставьте свои комментарий, если Вы скачали Охота на дикарей через торрент бесплатно! Внесите свою лепту в развитие PiratBit!
    Комментировать посты могут только пользователи прошедшие не сложную регистрацию
    Показать сообщения:    

    Охота на дикарей через торрент
    Скачать бесплатно Охота на дикарей
    Охота на дикарей скачать торрент
    Охота на дикарей смотреть онлайн
    Cкачать фильм Охота на дикарей бесплатно
    Охота на дикарей скачать торрент в хорошем качестве
    Охота на дикарей смотреть онлайн бесплатно в хорошем качестве


    Вы не можете начинать темы
    Вы не можете отвечать на сообщения
    Вы не можете редактировать свои сообщения
    Вы не можете удалять свои сообщения
    Вы не можете голосовать в опросах
    Вы не можете прикреплять файлы к сообщениям
    Вы можете скачивать файлы