1 сезон

3 сезон

iTunes

1

iTunes

DUB Netflix

iTunes

13

1 сезон

RePack

30

Deluxe

pack

Легкие деньги

ВАЖНО

ИГРА 18+

pack

RePack

MK11

RePack

jed

RePack

fifa19

RePack

RDR2

RePack

NEED FOR SPEED™ PAYBACK

4 сезон

9 сезон

Бесстыжие 9 сезон

Все сериалы

все сериалы на PB.wtf

RePack

FAR CRY 5

Anonymous, добрый вечер, мы не успеваем до 1 числа собрать деньги на оплату серверов, помогите нам пожалуйста в это трудное время. В качестве благодарности мы отключим Вам всю рекламу на сайте (укажите свой ник в строку Ваше имя)!

×
  
Magnet ссылка

Джеки / Jackie (Пабло Ларраин) [2016, драма, биография, BDRip-AVC] DUB [iTunes] от ExKinoRay piratbit.org

Джеки через торрент piratbit.org

Размер: 2.8 GB | Добавлен: 4 года 2 мес. назад | Торрент скачан:154 раза
Скачать  

28-03-2017 14:41 Джеки Скачать торрент  

Информация о фильме
Название: Джеки
Оригинальное название: Jackie
Год выпуска: 2016
Страна: Чили, Франция, США
Студия: Bliss Media, FABULA, Jackie Productions (II)
Жанр: Драма, биография
Продолжительность: 01:40:07
Перевод: Дублированный | iTunes
Субтитры: Русские, английские
Режиссер: Пабло Ларраин
В ролях: Натали Портман, Питер Сарсгаард, Грета Гервиг, Билли Крадап, Джон Хёрт, Ричард Э. Грант, Каспар Филлипсон, Бет Грант, Джон Кэрролл Линч, Макс Каселла

Описание: О Жаклин Кеннеди — первой леди Соединенных Штатов в начале 60-х, самой популярной женщине своего времени, иконе стиля — написаны десятки книг и снято немало фильмов, но огромный интерес к ее жизни с годами не угасает. В этой ленте авторы воспроизвели один из трагических моментов в американской истории — убийство президента Кеннеди в Далласе — и последовавшие за ним несколько дней, показав эти события глазами самой Жаклин. Весь мир восхищался ее стойкостью, достоинством и самообладанием. Но что на самом деле пережила эта женщина..?

rating

Файл
Качество: BDRip (AVC)
Видео: MPEG-4 AVC, 956x576 (5:3), 23.976 fps, ~3234 kbps avg, 0.245 bit/pixel
Аудио №1: AC3 / 5.1 / 48 kHz / 384 kbps / - дубляж
Аудио №2: AC3 / 5.1 / 48 kHz / 384 kbps / - английский
General
Unique ID : 254175000563057410557730252220598701916 (0xBF38531075A7FBA7BADAE8E15F0DCF5C)
Complete name : D:\Jackie.2016.D.BDRip.AVC.ExKinoRay.mkv
Format : Matroska
Format version : Version 2
File size : 2.80 GiB
Duration : 1 h 40 min
Overall bit rate : 4 001 kb/s
Movie name : Jackie 2016 from ExKinoRay
Encoded date : UTC 2017-03-27 23:19:09
Writing application : mkvmerge v5.8.0 ('No Sleep / Pillow') built on Sep 2 2012 15:37:04
Writing library : libebml v1.2.3 + libmatroska v1.3.0

Video
ID : 1
Format : AVC
Format/Info : Advanced Video Codec
Format profile : High@L4.1
Format settings, CABAC : Yes
Format settings, ReFrames : 12 frames
Codec ID : V_MPEG4/ISO/AVC
Duration : 1 h 40 min
Bit rate : 3 234 kb/s
Width : 956 pixels
Height : 576 pixels
Display aspect ratio : 5:3
Frame rate mode : Constant
Frame rate : 23.976 (24000/1001) FPS
Color space : YUV
Chroma subsampling : 4:2:0
Bit depth : 8 bits
Scan type : Progressive
Bits/(Pixel*Frame) : 0.245
Stream size : 2.20 GiB (79%)
Title : Enigma
Writing library : x264 core 144 r2525 40bb568
Encoding settings : cabac=1 / ref=12 / deblock=1:-2:-2 / analyse=0x3:0x113 / me=umh / subme=10 / psy=1 / psy_rd=0.95:0.00 / mixed_ref=1 / me_range=32 / chroma_me=1 / trellis=2 / 8x8dct=1 / cqm=0 / deadzone=21,11 / fast_pskip=1 / chroma_qp_offset=-2 / threads=12 / lookahead_threads=3 / sliced_threads=0 / nr=0 / decimate=1 / interlaced=0 / bluray_compat=0 / constrained_intra=0 / bframes=12 / b_pyramid=2 / b_adapt=2 / b_bias=0 / direct=3 / weightb=1 / open_gop=0 / weightp=2 / keyint=250 / keyint_min=23 / scenecut=40 / intra_refresh=0 / rc_lookahead=40 / rc=2pass / mbtree=0 / bitrate=3234 / ratetol=1.0 / qcomp=0.65 / qpmin=0 / qpmax=51 / qpstep=4 / cplxblur=20.0 / qblur=0.5 / vbv_maxrate=50000 / vbv_bufsize=62500 / nal_hrd=none / filler=0 / ip_ratio=1.40 / pb_ratio=1.30 / aq=1:1.00
Language : English
Default : Yes
Forced : No
Color range : Limited
Color primaries : BT.709
Transfer characteristics : BT.709
Matrix coefficients : BT.709

Audio #1
ID : 2
Format : AC-3
Format/Info : Audio Coding 3
Mode extension : CM (complete main)
Format settings, Endianness : Big
Codec ID : A_AC3
Duration : 1 h 40 min
Bit rate mode : Constant
Bit rate : 384 kb/s
Channel(s) : 6 channels
Channel positions : Front: L C R, Side: L R, LFE
Sampling rate : 48.0 kHz
Frame rate : 31.250 FPS (1536 spf)
Compression mode : Lossy
Stream size : 275 MiB (10%)
Title : Dub (iTunes)
Language : Russian
Default : Yes
Forced : No

Audio #2
ID : 3
Format : AC-3
Format/Info : Audio Coding 3
Mode extension : CM (complete main)
Format settings, Endianness : Big
Codec ID : A_AC3
Duration : 1 h 40 min
Bit rate mode : Constant
Bit rate : 384 kb/s
Channel(s) : 6 channels
Channel positions : Front: L C R, Side: L R, LFE
Sampling rate : 48.0 kHz
Frame rate : 31.250 FPS (1536 spf)
Compression mode : Lossy
Stream size : 275 MiB (10%)
Language : English
Default : No
Forced : No

Text #1
ID : 4
Format : UTF-8
Codec ID : S_TEXT/UTF8
Codec ID/Info : UTF-8 Plain Text
Language : Russian
Default : No
Forced : No

Text #2
ID : 5
Format : UTF-8
Codec ID : S_TEXT/UTF8
Codec ID/Info : UTF-8 Plain Text
Language : English
Default : No
Forced : No

Menu
00:00:00.000 : en:Chapter 01
00:04:24.305 : en:Chapter 02
00:08:38.559 : en:Chapter 03
00:12:41.969 : en:Chapter 04
00:16:45.587 : en:Chapter 05
00:21:56.857 : en:Chapter 06
00:25:31.321 : en:Chapter 07
00:30:39.629 : en:Chapter 08
00:33:52.321 : en:Chapter 09
00:38:36.647 : en:Chapter 10
00:44:05.476 : en:Chapter 11
00:46:59.024 : en:Chapter 12
00:49:41.186 : en:Chapter 13
00:53:55.482 : en:Chapter 14
00:59:10.880 : en:Chapter 15
01:03:47.031 : en:Chapter 16
01:06:20.476 : en:Chapter 17
01:08:23.015 : en:Chapter 18
01:11:27.157 : en:Chapter 19
01:14:43.061 : en:Chapter 20
01:17:51.208 : en:Chapter 21
01:21:57.037 : en:Chapter 22
01:25:02.097 : en:Chapter 23
01:32:52.525 : en:Chapter 24
Релиз от:

Автор релиза:

piratbit.org



Скачать Джеки через торрент http://i90.fastpic.ru/big/2017/0326/3a/e16807681eccb1e93c0eea05de908d3a.jpeg Скачать фильм Джеки через торрент бесплантно в хорошем качестве Описание: О Жаклин Кеннеди — первой леди Соединенных Штатов в начале 60-х, самой популярной женщине своего времени, иконе стиля — написаны ... 10 10 3
Info! Золотая раздача, скачанное не засчитывается.
Торрент: Зарегистрирован [2017-03-28 14:41] · скачан: 154 раз
Статус: √ проверено
Размер: 2.8 GB
Как cкачать? Как скачать Джеки через торрент | UTorrent

28-11-2019 20:33  

Отключить всю рекламу на сайте

    Дорогой пользователь! Огромная просьба, поблагодарите релизера, оцените раздачу и оставьте свои комментарий, если Вы скачали Джеки через торрент бесплатно! Внесите свою лепту в развитие PiratBit!
    Комментировать посты могут только пользователи прошедшие не сложную регистрацию
    Показать сообщения:    

    Джеки через торрент
    Скачать бесплатно Джеки
    Джеки скачать торрент
    Джеки смотреть онлайн
    Cкачать фильм Джеки бесплатно
    Джеки скачать торрент в хорошем качестве
    Джеки смотреть онлайн бесплатно в хорошем качестве


    Вы не можете начинать темы
    Вы не можете отвечать на сообщения
    Вы не можете редактировать свои сообщения
    Вы не можете удалять свои сообщения
    Вы не можете голосовать в опросах
    Вы не можете прикреплять файлы к сообщениям
    Вы можете скачивать файлы