1 сезон

3 сезон

iTunes

1

iTunes

DUB Netflix

iTunes

13

1 сезон

RePack

30

Deluxe

pack

Легкие деньги

ВАЖНО

ИГРА 18+

pack

RePack

MK11

RePack

jed

RePack

fifa19

RePack

RDR2

RePack

NEED FOR SPEED™ PAYBACK

4 сезон

9 сезон

Бесстыжие 9 сезон

Все сериалы

все сериалы на PB.wtf

RePack

FAR CRY 5

Anonymous, добрый вечер, мы не успеваем до 1 числа собрать деньги на оплату серверов, помогите нам пожалуйста в это трудное время. В качестве благодарности мы отключим Вам всю рекламу на сайте (укажите свой ник в строку Ваше имя)!

×
  
Magnet ссылка

Охота на дикарей / Hunt for the Wilderpeople (Тайка Вайтити) [2016 г., драма, комедия, BDRip-AVC] DUB [Лицензия] от ExKinoRay piratbit.org

Охота на дикарей через торрент piratbit.org

Раздают: 1 [ 0.3 KB/s ]
Размер: 2.05 GB | Добавлен: 4 года 2 мес. назад | Торрент скачан:796 раз
Скачать  

28-03-2017 15:21 Охота на дикарей Скачать торрент  

Информация о фильме
Название: Охота на дикарей
Оригинальное название: Hunt for the Wilderpeople
Год выхода: 2016
Страна: Новая Зеландия
Студия: Curious Film, Defender Films, Piki Films
Жанр: Приключения, драма, комедия
Продолжительность: 01:40:58
Перевод: Профессиональный многоголосый (Лицензия)
Субтитры: Русские (Forced, SDH), английские
Режиссер: Тайка Вайтити
В ролях: Сэм Нилл, Джулиан Деннисон, Рима Те Вьята, Рэйчел Хаус, Tioreore Ngatai-Melbourne, Оскар Кайтли, Стэн Уокер, Майк Миноуг, Коэн Холлоуэй, Риз Дэрби

Описание:
Рикки Бэйкер — упитанный городской хулиган. Сотрудница социальной службы Пола отвозит подростка в сельскую местность, где живёт единственная готовая принять его семья — Белла и её нелюдимый муж Гек. Когда Белла умирает и социальная защита собирается забрать Рикки, тот убегает в леса. Гек отправляется за ним. Сумасбродная Пола убеждена, что странный Гек слетел с катушек из-за смерти жены и похитил подростка. Она развязывает общенациональную охоту на мальчика и его «совратителя».

rating

Файл
Качество: BDRip (AVC)
Видео: MPEG-4 AVC, 1024x428 (2.40:1), 24 fps, ~2010 kbps avg, 0.191 bit/pixel
Аудио №1: AC3 / 5.1 / 48 kHz / 448 kbps / - русский
Аудио №2: AC3 / 5.1 / 48 kHz / 384 kbps / - английский
General
Unique ID : 208448213087031621862821789693693385639 (0x9CD1AA6114A2DB5A8D4A372A9883DBA7)
Complete name : D:\Natalia\New03.2017\Hunt for the Wilderpeople.2016.BDRip.AVC.ExKinoRay.mkv
Format : Matroska
Format version : Version 2
File size : 2.05 GiB
Duration : 1 h 40 min
Overall bit rate : 2 908 kb/s
Movie name : Охота на дикарей 2016 from ExKinoRay
Encoded date : UTC 2017-03-27 03:15:21
Writing application : mkvmerge v5.8.0 ('No Sleep / Pillow') built on Sep 2 2012 15:37:04
Writing library : libebml v1.2.3 + libmatroska v1.3.0

Video
ID : 1
Format : AVC
Format/Info : Advanced Video Codec
Format profile : High@L4.1
Format settings, CABAC : Yes
Format settings, ReFrames : 11 frames
Codec ID : V_MPEG4/ISO/AVC
Duration : 1 h 40 min
Bit rate : 2 010 kb/s
Width : 1 024 pixels
Height : 428 pixels
Display aspect ratio : 2.40:1
Frame rate mode : Constant
Frame rate : 24.000 FPS
Color space : YUV
Chroma subsampling : 4:2:0
Bit depth : 8 bits
Scan type : Progressive
Bits/(Pixel*Frame) : 0.191
Stream size : 1.38 GiB (67%)
Writing library : x264 core 144 r2525 40bb568
Encoding settings : cabac=1 / ref=11 / deblock=1:-3:-3 / analyse=0x3:0x113 / me=umh / subme=10 / psy=1 / psy_rd=1.00:0.10 / mixed_ref=1 / me_range=32 / chroma_me=1 / trellis=2 / 8x8dct=1 / cqm=0 / deadzone=21,11 / fast_pskip=0 / chroma_qp_offset=-3 / threads=12 / lookahead_threads=3 / sliced_threads=0 / nr=0 / decimate=0 / interlaced=0 / bluray_compat=0 / constrained_intra=0 / bframes=11 / b_pyramid=2 / b_adapt=2 / b_bias=0 / direct=3 / weightb=1 / open_gop=0 / weightp=2 / keyint=240 / keyint_min=24 / scenecut=40 / intra_refresh=0 / rc_lookahead=40 / rc=2pass / mbtree=0 / bitrate=2010 / ratetol=1.0 / qcomp=0.60 / qpmin=0 / qpmax=51 / qpstep=4 / cplxblur=20.0 / qblur=0.5 / vbv_maxrate=50000 / vbv_bufsize=62500 / nal_hrd=none / filler=0 / ip_ratio=1.40 / pb_ratio=1.30 / aq=1:1.00
Language : English
Default : Yes
Forced : No
Color range : Limited
Color primaries : BT.709
Transfer characteristics : BT.709
Matrix coefficients : BT.709

Audio #1
ID : 2
Format : AC-3
Format/Info : Audio Coding 3
Mode extension : CM (complete main)
Format settings, Endianness : Big
Codec ID : A_AC3
Duration : 1 h 40 min
Bit rate mode : Constant
Bit rate : 448 kb/s
Channel(s) : 6 channels
Channel positions : Front: L C R, Side: L R, LFE
Sampling rate : 48.0 kHz
Frame rate : 31.250 FPS (1536 spf)
Compression mode : Lossy
Stream size : 324 MiB (15%)
Title : MVO (Лицензия)
Language : Russian
Default : Yes
Forced : No

Audio #2
ID : 3
Format : AC-3
Format/Info : Audio Coding 3
Mode extension : CM (complete main)
Format settings, Endianness : Big
Codec ID : A_AC3
Duration : 1 h 40 min
Bit rate mode : Constant
Bit rate : 448 kb/s
Channel(s) : 6 channels
Channel positions : Front: L C R, Side: L R, LFE
Sampling rate : 48.0 kHz
Frame rate : 31.250 FPS (1536 spf)
Compression mode : Lossy
Stream size : 324 MiB (15%)
Language : English
Default : No
Forced : No

Text #1
ID : 4
Format : UTF-8
Codec ID : S_TEXT/UTF8
Codec ID/Info : UTF-8 Plain Text
Title : Forced
Language : Russian
Default : No
Forced : No

Text #2
ID : 5
Format : UTF-8
Codec ID : S_TEXT/UTF8
Codec ID/Info : UTF-8 Plain Text
Title : SDH
Language : Russian
Default : No
Forced : No

Text #3
ID : 6
Format : UTF-8
Codec ID : S_TEXT/UTF8
Codec ID/Info : UTF-8 Plain Text
Language : English
Default : No
Forced : No

Menu
00:00:00.000 : en:Chapter 1
00:06:04.791 : en:Chapter 2
00:16:58.916 : en:Chapter 3
00:25:29.375 : en:Chapter 4
00:36:20.041 : en:Chapter 5
00:43:50.958 : en:Chapter 6
00:51:02.833 : en:Chapter 7
00:59:52.166 : en:Chapter 8
01:08:52.208 : en:Chapter 9
01:18:39.583 : en:Chapter 10
01:29:48.416 : en:Chapter 11
01:36:13.625 : en:Chapter 12
Релиз от:

Автор релиза:

piratbit.org



Скачать Охота на дикарей через торрент http://s019.radikal.ru/i625/1610/bd/2f5e4653ff71.jpg Скачать фильм Охота на дикарей через торрент бесплантно в хорошем качестве Описание:Рикки Бэйкер — упитанный городской хулиган. Сотрудница социальной службы Пола отвозит подростка в сельскую местность, где живёт ... 9.6 10 8
Info! Золотая раздача, скачанное не засчитывается.
Торрент: Зарегистрирован [2017-03-28 15:21] · скачан: 796 раз
Статус: √ проверено
Размер: 2.05 GB
Как cкачать? Как скачать Охота на дикарей через торрент | UTorrent

% Раздел Тема Автор DL S | L
Фильмы (Blu-ray, BD-Remux, HDDVD) [ 26.74 GB ] Охота на дикарей / Hunt for the Wilderpeople [2016 BDRemux 1080p] от ExKinoRay / MVO / Russian Mafia Скачать
1 | 0

28-11-2019 20:33  

Отключить всю рекламу на сайте

28-03-2017 16:56 Охота на дикарей Скачать торрент  

прикольный фильм.piratbit.org



28-03-2017 17:35 Охота на дикарей Скачать торрент  

argud писал(а):

прикольный фильм.

Да. Посмотреть можно.piratbit.org



01-04-2017 12:56 Охота на дикарей Скачать торрент  

согласна с предыдущими комментами. ничего такой фильмец. без пошлостей, не избитый сюжет. для Новой Зеландии так вообще нормуль. смотрите.piratbit.org



24-01-2018 18:42 Охота на дикарей Скачать торрент  

Абсолютно не согласен с предыдущими комментами!!!
Фильм полный трешак. Бред растянутый почти на два часа. Специально дотянул до конца, пытался понять что и где начнется инетересно.
Друзья, если у вас есть лишние никчемные два часа жизни посвятите их этому фильму... piratbit.org



23-03-2019 18:29 Охота на дикарей Скачать торрент  

Sergey1982vl писал(а):

Абсолютно не согласен с предыдущими комментами!!!
Фильм полный трешак. Бред растянутый почти на два часа. Специально дотянул до конца, пытался понять что и где начнется инетересно.
Друзья, если у вас есть лишние никчемные два часа жизни посвятите их этому фильму...

piratbit.org



    Дорогой пользователь! Огромная просьба, поблагодарите релизера, оцените раздачу и оставьте свои комментарий, если Вы скачали Охота на дикарей через торрент бесплатно! Внесите свою лепту в развитие PiratBit!
    Комментировать посты могут только пользователи прошедшие не сложную регистрацию
    Показать сообщения:    

    Охота на дикарей через торрент
    Скачать бесплатно Охота на дикарей
    Охота на дикарей скачать торрент
    Охота на дикарей смотреть онлайн
    Cкачать фильм Охота на дикарей бесплатно
    Охота на дикарей скачать торрент в хорошем качестве
    Охота на дикарей смотреть онлайн бесплатно в хорошем качестве


    Вы не можете начинать темы
    Вы не можете отвечать на сообщения
    Вы не можете редактировать свои сообщения
    Вы не можете удалять свои сообщения
    Вы не можете голосовать в опросах
    Вы не можете прикреплять файлы к сообщениям
    Вы можете скачивать файлы