1 сезон

3 сезон

iTunes

1

iTunes

DUB Netflix

iTunes

13

1 сезон

RePack

30

Deluxe

pack

Легкие деньги

ВАЖНО

ИГРА 18+

pack

RePack

MK11

RePack

jed

RePack

fifa19

RePack

RDR2

RePack

NEED FOR SPEED™ PAYBACK

4 сезон

9 сезон

Бесстыжие 9 сезон

Все сериалы

все сериалы на PB.wtf

RePack

FAR CRY 5

Anonymous, добрый день, мы не успеваем до 1 числа собрать деньги на оплату серверов, помогите нам пожалуйста в это трудное время. В качестве благодарности мы отключим Вам всю рекламу на сайте (укажите свой ник в строку Ваше имя)!

×
  
Magnet ссылка

Медаль за победу / Medal of Victory (Джошуа Муаз, Joshua Moise) [2016 г., боевик, комедия, WEB-DLRip,Любительский (многоголосый) ["Синема УС"] ] piratbit.org

Медаль за победу через торрент piratbit.org

Размер: 1.37 GB | Добавлен: 4 года 2 мес. назад | Торрент скачан:153 раза
Скачать  

31-03-2017 12:58 Медаль за победу Скачать торрент  

Медаль за победу / Medal of Victory
Год выпуска: 2016
Страна: США / Colony, The, Warehouse District Productions
Жанр: боевик, комедия, приключения
Продолжительность: 01:32:54
Перевод: Любительский (многоголосый) ["Синема УС"]
Субтитры: нет

Режиссер: Джошуа Муаз, Joshua Moise

rating

В ролях: Ричард Рили, Клифф Чемберлен, Анна Мартемуччи, Гэри Хьюстон, Джек О’Коннелл, Одри Френсис, Хоуи Джонсон, Рич Коменич, Фрэнк Симс, Уилл Бломкер

Описание: После случайной отправки ядерных боеголовок в Малави, солдаты Флойд и Стью уходят в самоволку. В родном городе Флойда по ошибке считают героем войны, награжденным медалью за победу, и привлекают к предвыборной гонке на пост мэра города. Комично-абсурдная ситуация вынуждает Флойда принять решение – снова сбежать или посмотреть в лицо своему прошлому и остаться дома.

Доп. информация: Есть реклама.

Качество: WEB-DLRip
Формат: AVI
Видео кодек: XviD
Аудио кодек: AC3
Видео: 720x304 (2.37:1), 23.976 fps, XviD build 50 ~1712 kbps avg, 0.33 bit/pixel
Аудио#1: 48 kHz, AC3 Dolby Digital, 2/0 (L,R) ch, ~384 kbps



General
Complete name : H:\релизы.торрентфайл\Medal.of.Victory.2016.P.WEB-DLRip.14OOMB_KOSHARA.avi
Format : AVI
Format/Info : Audio Video Interleave
File size : 1.37 GiB
Duration : 1h 32mn
Overall bit rate : 2 106 Kbps
Writing application : VirtualDubMod 1.5.10.2 (build 2540/release)
Writing library : VirtualDubMod build 2540/release

Video
ID : 0
Format : MPEG-4 Visual
Format profile : Advanced Simple@L5
Format settings, BVOP : 2
Format settings, QPel : No
Format settings, GMC : No warppoints
Format settings, Matrix : Default (MPEG)
Codec ID : XVID
Codec ID/Hint : XviD
Duration : 1h 32mn
Bit rate : 1 713 Kbps
Width : 720 pixels
Height : 304 pixels
Display aspect ratio : 2.35:1
Frame rate : 23.976 fps
Color space : YUV
Chroma subsampling : 4:2:0
Bit depth : 8 bits
Scan type : Progressive
Compression mode : Lossy
Bits/(Pixel*Frame) : 0.326
Stream size : 1.11 GiB (81%)
Writing library : XviD 1.2.1 (UTC 2008-12-04)

Audio
ID : 1
Format : AC-3
Format/Info : Audio Coding 3
Mode extension : CM (complete main)
Format settings, Endianness : Big
Codec ID : 2000
Duration : 1h 32mn
Bit rate mode : Constant
Bit rate : 384 Kbps
Channel(s) : 2 channels
Channel positions : Front: L R
Sampling rate : 48.0 KHz
Bit depth : 16 bits
Compression mode : Lossy
Stream size : 255 MiB (18%)
Alignment : Split accross interleaves
Interleave, duration : 42 ms (1.00 video frame)
Interleave, preload duration : 500 ms

piratbit.org



Скачать Медаль за победу через торрент http://i90.fastpic.ru/big/2017/0331/8a/bab4f03a5ed4b48056754982082ab58a.jpg Скачать фильм Медаль за победу через торрент бесплантно в хорошем качестве Описание: После случайной отправки ядерных боеголовок в Малави, солдаты Флойд и Стью уходят в самоволку. В родном городе Флойда по ошибке ... 8.5 10 8
Торрент: Зарегистрирован [2017-03-31 12:58] · скачан: 153 раз
Статус: T временная
Размер: 1.37 GB
Как cкачать? Как скачать Медаль за победу через торрент | UTorrent

28-11-2019 20:33  

Отключить всю рекламу на сайте

    Дорогой пользователь! Огромная просьба, поблагодарите релизера, оцените раздачу и оставьте свои комментарий, если Вы скачали Медаль за победу через торрент бесплатно! Внесите свою лепту в развитие PiratBit!
    Комментировать посты могут только пользователи прошедшие не сложную регистрацию
    Показать сообщения:    

    Медаль за победу через торрент
    Скачать бесплатно Медаль за победу
    Медаль за победу скачать торрент
    Медаль за победу смотреть онлайн
    Cкачать фильм Медаль за победу бесплатно
    Медаль за победу скачать торрент в хорошем качестве
    Медаль за победу смотреть онлайн бесплатно в хорошем качестве


    Вы не можете начинать темы
    Вы не можете отвечать на сообщения
    Вы не можете редактировать свои сообщения
    Вы не можете удалять свои сообщения
    Вы не можете голосовать в опросах
    Вы не можете прикреплять файлы к сообщениям
    Вы можете скачивать файлы