Доктор Стрэндж

Лицензия

Добыча

MVO

Дом дракона

1 сезон

Тор

Лицензия

Мэверик

Лицензия

Там, где раки поют

MVO

Властелин колец

1 сезон

Ultimate

pack

Рекомендуем

30

Repack

ВАЖНО

ВАЖНО

Ghostwire

RePack

jed

RePack

nioh2

RePack

RDR2

RePack

NEED FOR SPEED™ PAYBACK

RePack

скачать торрент

Кинопоиск HD

Острые козырьки 6 сезон

6 сезон

FAR CRY 6

RePack

скачать торрент

Лицензия

скачать торрент

MVO

1

1 сезон

скачать торрент

1 сезон

скачать торрент

Лицензия

  

Чрезвычайное поручение (Эразм Карамян, Степан Кеворков) [1965, СССР, боевик, приключения, биография, DVDRip от AVP Studio]

Чрезвычайное поручение через торрент piratbit.org

Размер: 1.46 GB | Добавлен: 5 лет 6 мес. назад | Торрент скачан:4 раза
Смотреть онлайн Чрезвычайное поручение | Скачать   

01-04-2017 06:53 Чрезвычайное поручение Скачать торрент  

Чрезвычайное поручение
Страна: СССР
Производство: Арменфильм

Жанр: боевик, биография, приключения
Год выпуска: 1965
Продолжительность: 01:47:37

Перевод: Не требуется
Cубтитры: нет
Оригинальная аудиодорожка: русский

Режиссер: Эразм Карамян, Степан Кеворков

В ролях:
Гурген Тонунц, Борис Чирков, Эльза Леждей, Семён Соколовский, Владимир Кенигсон, Владимир Дружников, Нина Шацкая, Тристан Квелаидзе...
Об актёрах подробней

Описание:
Второй фильм кинотрилогии ("Лично известен", "Чрезвычайное поручение", "Последний подвиг Камо") о революционере-большевике С.А.Тер-Петросяне.
Время действия - 1917 год. Началась гражданская война, над молодой Советской республикой сгустились тучи конрреволюции. Камо получает чрезвычайное поручение Ленина: доставить из Петрограда в Тифлис мандат о назначении Степана Шаумяна чрезвычайным комиссаром по делам Кавказа и пятьсот тысяч рублей золотом для борьбы с белогвардейщиной на Кавказе. Бесстрашный Камо выбирает самый короткий и опасный путь - через районы, занятые белым казачеством. Он делает это намеренно, так как знает о том, что на его след напал известный террорист Борис Савинков, который должен был сорвать поручение, выполняемое Камо, и убить его. Камо и его друзья вступают в смертельный поединок с опасным и опытным врагом...

Источник: DVD9 R5
Качество видео: DVDRip
Формат видео: AVI

Видео: 688x512 (4:3), 25 fps, XviD ~ 1741 kbps avg, 0.198 bit/pixel
Аудио: 48 kHz, Dolby Digital AC3 2.0, 192 kbps

Раздача от:
Общее
Полное имя : Chrezvychaynoe.poruchenie.1965.DVDRip_[New-team]_by_AVP_Studio.avi
Формат : AVI
Формат/Информация : Audio Video Interleave
Размер файла : 1,46 Гбайт
Продолжительность : 1 ч. 47 м.
Общий поток : 1943 Кбит/сек
Программа кодирования : VirtualDubMod 1.5.10.3 | www.virtualdub-fr.org || (build 2550/release)
Библиотека кодирования : VirtualDubMod build 2550/release

Видео
Идентификатор : 0
Формат : MPEG-4 Visual
Профиль формата : Advanced Simple@L5
Параметр BVOP формата : 1
Параметр QPel формата : Нет
Параметр GMC формата : Без точки перехода
Параметр матрицы формата : Выборочная
Идентификатор кодека : XVID
Идентификатор кодека/Подсказка : XviD
Продолжительность : 1 ч. 47 м.
Битрейт : 1741 Кбит/сек
Ширина : 688 пикселей
Высота : 512 пикселей
Соотношение сторон : 4:3
Частота кадров : 25,000 кадров/сек
Цветовое пространство : YUV
Субдискретизация насыщенности : 4:2:0
Битовая глубина : 8 бит
Тип развёртки : Прогрессивная
Метод сжатия : С потерями
Бит/(Пиксели*Кадры) : 0.198
Размер потока : 1,31 Гбайт (90%)
Библиотека кодирования : XviD 73

Аудио
Идентификатор : 1
Формат : AC-3
Формат/Информация : Audio Coding 3
Параметр Endianness формата : Big
Идентификатор кодека : 2000
Продолжительность : 1 ч. 47 м.
Вид битрейта : Постоянный
Битрейт : 192 Кбит/сек
Каналы : 2 канала
Расположение каналов : Front: L R
Частота : 48,0 КГц
Частота кадров : 31,250 кадров/сек (1536 spf)
Битовая глубина : 16 бит
Метод сжатия : С потерями
Размер потока : 148 Мбайт (10%)
Выравнивание : Разделение по промежуткам
Продолжительность промежутка : 40 мс. (1,00 видеокадр)
Время предзагрузки промежутка : 500 мс



Скачать Чрезвычайное поручение через торрент http://s020.radikal.ru/i716/1704/60/f3338ae53460.png Скачать, смотреть онлайн Чрезвычайное поручение бесплантно в хорошем качестве Описание:Второй фильм кинотрилогии ("Лично известен", "Чрезвычайное поручение", "Последний подвиг Камо") о революционере-большевике ... 5 10 1
Info! Золотая раздача, скачанное не засчитывается.
Торрент: Зарегистрирован [2017-04-01 06:53] · скачан: 4 раз
Статус: √ проверено
Размер: 1.46 GB
Как cкачать? Как скачать Чрезвычайное поручение через торрент | UTorrent

% Раздел Тема Автор DL S | L
Кино СССР [ 1.46 GB ] Чрезвычайное поручение | | DVDRip-AVC от AVP Studio AVP Studio Скачать
1 | 0
Кино СССР [ 746 MB ] Чрезвычайное поручение | | DVDRip от AVP Studio AVP Studio Скачать
1 | 0

28-11-2019 20:33  

Отключить вcю реклaмy на сайте

    Дорогой пользователь! Огромная просьба, поблагодарите релизера, оцените раздачу и оставьте свои комментарий, если Вы скачали Чрезвычайное поручение через торрент бесплатно!!
    Комментировать посты могут только пользователи прошедшие не сложную регистрацию
    Показать сообщения:    


    Чрезвычайное поручение через торрент
    Скачать бесплатно Чрезвычайное поручение
    Чрезвычайное поручение скачать торрент
    Чрезвычайное поручение смотреть онлайн
    Cкачать фильм Чрезвычайное поручение бесплатно
    Чрезвычайное поручение скачать торрент в хорошем качестве
    Чрезвычайное поручение смотреть онлайн бесплатно в хорошем качестве
    Вы не можете начинать темы
    Вы не можете отвечать на сообщения
    Вы не можете редактировать свои сообщения
    Вы не можете удалять свои сообщения
    Вы не можете голосовать в опросах
    Вы не можете прикреплять файлы к сообщениям
    Вы можете скачивать файлы