Присоединяйтесь к нам в Telegram!, здесь всегда актуальный адрес сайта, оперативная поддержка и многое другое!!

>

5.9

iTunes

7.4

iTunes

9.4

1 сезон

1

7.4

2 сезон

7.2

iTunes

7.3

iTunes

13

6.1

iTunes

8.3

Пиратка

30

ULTIMATE

pack

9.9

Лицензия

ВАЖНО

ИГРА 18+

pack

7.3

RePack

MK11

7.7

RePack

jed

7.8

RePack

fifa19

8.5

RePack

RDR2

RePack

NEED FOR SPEED™ PAYBACK

5 сезон

9 сезон

Бесстыжие 9 сезон

Все сериалы

все сериалы на PB.wtf

RePack

FAR CRY 5

Anonymous, добрый вечер, мы катастрофически не успеваем собрать деньги на оплату серверов, помогите нам пожалуйста 5,10,15р., для нас важна любая помощь . В качестве благодарности мы отключим Вам всю рекламу на сайте (укажите свой ник в строку Ваше имя)!

×
  
Magnet ссылка

Жизнь -зло / Live Evil (Эри Кирченбаум) [2015 г., ужасы, WEB-DLRip, Любительский одноголосый Xixidok] piratbit.org

Жизнь -зло через торрент piratbit.org

Размер: 1.22 GB | Добавлен: 4 года 8 мес. назад | Торрент скачан:62 раза
Смотреть онлайн Жизнь -зло | Скачать    Ребята, помогите собрать деньги на оплату серверов!!!

02-04-2017 15:32 Жизнь -зло Скачать торрент  

Жизнь -зло / Live Evil
Год выпуска: 2015
Страна: США / Simian Tales Productions
Жанр: ужасы
Продолжительность: 01:35:40
Перевод: Любительский одноголосый Xixidok
Субтитры: нет

Режиссер: Эри Кирченбаум

rating

В ролях: Шарлин Амойя, Владимир Кулих, Тони Тодд, Винсент Уорд, Дж. Ричи Нэш, Рассел А. Брайан, Carter Ира, Дэвид Вуд III, Тамара Фария, Dani Gehle

Описание: Сверхъестественные силы заперты в подвале тюрьмы полицейского участка. Шериф и его заместители подвергаются психическим атакам, играя на страхах лояльных офицеров и выжить могут только те, кто обладает сильной волей.

Доп. информация: Есть реклама.

Качество: WEB-DLRip
Формат: AVI
Видео кодек: XviD
Аудио кодек: MP3
Видео: XviD, 1617 kbps, 720x304 ,23.976 fps
Аудио#1: MP3, 192 kbps, 2 ch,44.1 KHz



General
Complete name : H:\релизы.торрентфайл\Grave.Walkers.2016.Xixidok.avi
Format : AVI
Format/Info : Audio Video Interleave
File size : 1.22 GiB
Duration : 1h 35mn
Overall bit rate : 1 819 Kbps
Writing application : VirtualDubMod 1.5.10.3 (build 2550/release)
Writing library : VirtualDubMod build 2550/release

Video
ID : 0
Format : MPEG-4 Visual
Format profile : Advanced Simple@L5
Format settings, BVOP : 2
Format settings, QPel : No
Format settings, GMC : No warppoints
Format settings, Matrix : Default (H.263)
Muxing mode : Packed bitstream
Codec ID : XVID
Codec ID/Hint : XviD
Duration : 1h 35mn
Bit rate : 1 618 Kbps
Width : 720 pixels
Height : 304 pixels
Display aspect ratio : 2.35:1
Frame rate : 23.976 fps
Color space : YUV
Chroma subsampling : 4:2:0
Bit depth : 8 bits
Scan type : Progressive
Compression mode : Lossy
Bits/(Pixel*Frame) : 0.308
Stream size : 1.08 GiB (89%)
Writing library : XviD 66

Audio
ID : 1
Format : MPEG Audio
Format version : Version 1
Format profile : Layer 3
Codec ID : 55
Codec ID/Hint : MP3
Duration : 1h 35mn
Bit rate mode : Constant
Bit rate : 192 Kbps
Channel(s) : 2 channels
Sampling rate : 44.1 KHz
Compression mode : Lossy
Stream size : 131 MiB (11%)
Alignment : Split accross interleaves
Interleave, duration : 42 ms (1.00 video frame)
Interleave, preload duration : 500 ms

piratbit.org



Скачать Жизнь -зло через торрент http://i91.fastpic.ru/big/2017/0402/eb/09488e6435d324bbaf631dc19b7d44eb.jpg Скачать, смотреть онлайн Жизнь -зло бесплантно в хорошем качестве Описание: Сверхъестественные силы заперты в подвале тюрьмы полицейского участка. Шериф и его заместители подвергаются психическим атакам, ... 10 10 5
Торрент: Зарегистрирован [2017-04-02 15:32] · скачан: 62 раз
Статус: T временная
Размер: 1.22 GB
Как cкачать? Как скачать Жизнь -зло через торрент | UTorrent

28-11-2019 20:33  

Отключить всю рекламу на сайте

    Дорогой пользователь! Огромная просьба, поблагодарите релизера, оцените раздачу и оставьте свои комментарий, если Вы скачали Жизнь -зло через торрент бесплатно!
    Комментировать посты могут только пользователи прошедшие не сложную регистрацию
    Показать сообщения:    

    Жизнь -зло через торрент
    Скачать бесплатно Жизнь -зло
    Жизнь -зло скачать торрент
    Жизнь -зло смотреть онлайн
    Cкачать фильм Жизнь -зло бесплатно
    Жизнь -зло скачать торрент в хорошем качестве
    Жизнь -зло смотреть онлайн бесплатно в хорошем качестве


    Вы не можете начинать темы
    Вы не можете отвечать на сообщения
    Вы не можете редактировать свои сообщения
    Вы не можете удалять свои сообщения
    Вы не можете голосовать в опросах
    Вы не можете прикреплять файлы к сообщениям
    Вы можете скачивать файлы