2 сезон

iTunes

WEBRip

1

2 сезон

iTunes

1 сезон

1 сезон

RePack

30

Новинка

ВАЖНО

ИГРА 18+

pack

RePack

MK11
pack

Легкие деньги

RePack

jed

RePack

fifa19

RePack

RDR2

RePack

NEED FOR SPEED™ PAYBACK

4 сезон

9 сезон

Бесстыжие 9 сезон

Все сериалы

все сериалы на PB.wtf

RePack

FAR CRY 5

Anonymous, добрый вечер, мы не успеваем собрать деньги на оплату серверов за февраль, помогите нам пожалуйста в это трудное время. В качестве благодарности мы отключим Вам всю рекламу на сайте (укажите свой ник в строку Ваше имя)!

×
  
Magnet ссылка

Молчание / Мовчання / Silence (Мартин Скорсезе) [2016, драма, история, BDRip-AVC] [Ukr DUB], Sub (Rus) - ExKinoRay piratbit.org

Молчание через торрент piratbit.org

Размер: 2.34 GB | Добавлен: 3 года 10 мес. назад | Торрент скачан:109 раз
Скачать  

04-04-2017 04:41 Молчание Скачать торрент  

Информация о фильме
Название: Молчание
Оригинальное название: Silence
Год выпуска: 2016
Выпущено: Мексика, Тайвань, США, Cappa Defina Productions, Emmett/Furla/Oasis Films (EFO Films)
Жанр: Драма, история
Продолжительность: 02:41:09
Перевод: Дубляж (украинский)
Субтитры: Русские, английские
Режиссер: Мартин Скорсезе
В ролях: Эндрю Гарфилд, Адам Драйвер, Лиам Нисон, Таданобу Асано, Киаран Хайндс, Иссэй Огата, Синья Цукамото, Ёси Оида, Ёскэ Кубодзука, Каору Эндо

Описание: В середине 17 века два миссионера-иезуита, Родригес и Гарупе, отправляются в Японию, чтобы найти своего учителя - бесследно исчезнувшего католического священника отца Феррейру. Ходят упорные слухи, что Феррейра не погиб, а отрекся от своей веры и даже женился на местной девушке. Прибыв на остров Кюсю, миссионеры оказываются в самом центре гонений японских властей на христиан, однако находят приют в провинциальной деревушке, жители которой тайно исповедуют католичество. Очутившись в пекле религиозной борьбы, отец Родригес все больше запутывается и сомневается в собственной вере. Вскоре весть о непрошенных гостях доходит до главного притеснителя христиан, который называет сам себя «инквизитором», и для поимки священников в деревушку отправляется вооруженный отряд.

rating

Файл
Качество: BDRip (AVC)
Видео: MPEG-4 AVC, 1024x428 (2.40:1), 23.976 fps, ~1504 kbps avg, 0.143 bit/pixel
Аудио #1: AC-3, 48.0 KHz, 5.1 ch, 384 Kbps, CBR (English)
Аудио #2: AC-3, 48.0 KHz, 2.0 ch, 192 Kbps, CBR (Ukrainian)
General
Unique ID : 178386219809689717878621690810938189271 (0x8633EFAD688E2E44ACD13178823065D7)
Complete name : D:\Silence.2016.D.BDRip.AVC.ExKinoRay.mkv
Format : Matroska
Format version : Version 2
File size : 2.34 GiB
Duration : 2 h 41 min
Overall bit rate : 2 082 kb/s
Movie name : Silence 2016 from ExKinoRay
Encoded date : UTC 2017-04-04 03:37:18
Writing application : mkvmerge v5.8.0 ('No Sleep / Pillow') built on Sep 2 2012 15:37:04
Writing library : libebml v1.2.3 + libmatroska v1.3.0

Video
ID : 1
Format : AVC
Format/Info : Advanced Video Codec
Format profile : High@L4.1
Format settings, CABAC : Yes
Format settings, ReFrames : 12 frames
Codec ID : V_MPEG4/ISO/AVC
Duration : 2 h 41 min
Bit rate : 1 504 kb/s
Width : 1 024 pixels
Height : 428 pixels
Display aspect ratio : 2.40:1
Frame rate mode : Constant
Frame rate : 23.976 (24000/1001) FPS
Color space : YUV
Chroma subsampling : 4:2:0
Bit depth : 8 bits
Scan type : Progressive
Bits/(Pixel*Frame) : 0.143
Stream size : 1.65 GiB (70%)
Title : Enigma
Writing library : x264 core 144 r2525 40bb568
Encoding settings : cabac=1 / ref=12 / deblock=1:-2:-2 / analyse=0x3:0x113 / me=umh / subme=10 / psy=1 / psy_rd=1.00:0.05 / mixed_ref=1 / me_range=32 / chroma_me=1 / trellis=2 / 8x8dct=1 / cqm=0 / deadzone=21,11 / fast_pskip=1 / chroma_qp_offset=-3 / threads=12 / lookahead_threads=3 / sliced_threads=0 / nr=0 / decimate=1 / interlaced=0 / bluray_compat=0 / constrained_intra=0 / bframes=16 / b_pyramid=2 / b_adapt=2 / b_bias=0 / direct=3 / weightb=1 / open_gop=0 / weightp=2 / keyint=240 / keyint_min=23 / scenecut=40 / intra_refresh=0 / rc_lookahead=40 / rc=2pass / mbtree=0 / bitrate=1504 / ratetol=1.0 / qcomp=0.60 / qpmin=0 / qpmax=51 / qpstep=4 / cplxblur=20.0 / qblur=0.5 / vbv_maxrate=50000 / vbv_bufsize=62500 / nal_hrd=none / filler=0 / ip_ratio=1.40 / pb_ratio=1.30 / aq=1:1.00
Language : English
Default : Yes
Forced : No
Color range : Limited
Color primaries : BT.709
Transfer characteristics : BT.709
Matrix coefficients : BT.709

Audio #1
ID : 2
Format : AC-3
Format/Info : Audio Coding 3
Mode extension : CM (complete main)
Format settings, Endianness : Big
Codec ID : A_AC3
Duration : 2 h 41 min
Bit rate mode : Constant
Bit rate : 384 kb/s
Channel(s) : 6 channels
Channel positions : Front: L C R, Side: L R, LFE
Sampling rate : 48.0 kHz
Frame rate : 31.250 FPS (1536 spf)
Compression mode : Lossy
Stream size : 443 MiB (18%)
Language : English
Default : No
Forced : No

Audio #2
ID : 3
Format : AC-3
Format/Info : Audio Coding 3
Mode extension : CM (complete main)
Format settings, Endianness : Big
Codec ID : A_AC3
Duration : 2 h 41 min
Bit rate mode : Constant
Bit rate : 192 kb/s
Channel(s) : 2 channels
Channel positions : Front: L R
Sampling rate : 48.0 kHz
Frame rate : 31.250 FPS (1536 spf)
Compression mode : Lossy
Stream size : 221 MiB (9%)
Title : Dub
Language : Ukrainian
Default : No
Forced : No

Text #1
ID : 4
Format : UTF-8
Codec ID : S_TEXT/UTF8
Codec ID/Info : UTF-8 Plain Text
Title : Full
Language : Russian
Default : Yes
Forced : No

Text #2
ID : 5
Format : UTF-8
Codec ID : S_TEXT/UTF8
Codec ID/Info : UTF-8 Plain Text
Title : Full
Language : English
Default : No
Forced : No

Menu
00:00:00.000 : en:Chapter 01
00:12:59.904 : en:Chapter 02
00:22:15.792 : en:Chapter 03
00:33:21.708 : en:Chapter 04
00:41:58.724 : en:Chapter 05
00:51:14.029 : en:Chapter 06
01:03:15.291 : en:Chapter 07
01:10:57.127 : en:Chapter 08
01:22:59.099 : en:Chapter 09
01:30:19.914 : en:Chapter 10
01:41:49.645 : en:Chapter 11
01:47:57.012 : en:Chapter 12
01:54:46.546 : en:Chapter 13
02:10:37.162 : en:Chapter 14
02:19:11.051 : en:Chapter 15
02:34:22.253 : en:Chapter 16
Релиз от:

Автор релиза: piratbit.org



Скачать Молчание через торрент http://img11.lostpic.net/2017/01/24/866590f1255afcd743d32d106daf5097.png Скачать фильм Молчание через торрент бесплантно в хорошем качестве Описание: В середине 17 века два миссионера-иезуита, Родригес и Гарупе, отправляются в Японию, чтобы найти своего учителя - бесследно ... 8.5 10 6
Info! Золотая раздача, скачанное не засчитывается.
Торрент: Зарегистрирован [2017-04-04 04:41] · скачан: 109 раз
Статус: √ проверено
Размер: 2.34 GB
Как cкачать? Как скачать Молчание через торрент | UTorrent

28-11-2019 20:33  

Отключить всю рекламу на сайте

    Дорогой пользователь! Огромная просьба, поблагодарите релизера, оцените раздачу и оставьте свои комментарий, если Вы скачали Молчание через торрент бесплатно! Внесите свою лепту в развитие PiratBit!
    Комментировать посты могут только пользователи прошедшие не сложную регистрацию
    Показать сообщения:    

    Молчание через торрент
    Скачать бесплатно Молчание
    Молчание скачать торрент
    Молчание смотреть онлайн
    Cкачать фильм Молчание бесплатно
    Молчание скачать торрент в хорошем качестве
    Молчание смотреть онлайн бесплатно в хорошем качестве


    Вы не можете начинать темы
    Вы не можете отвечать на сообщения
    Вы не можете редактировать свои сообщения
    Вы не можете удалять свои сообщения
    Вы не можете голосовать в опросах
    Вы не можете прикреплять файлы к сообщениям
    Вы можете скачивать файлы