1 сезон

3 сезон

iTunes

1

iTunes

DUB Netflix

iTunes

13

1 сезон

RePack

30

Deluxe

pack

Легкие деньги

ВАЖНО

ИГРА 18+

pack

RePack

MK11

RePack

jed

RePack

fifa19

RePack

RDR2

RePack

NEED FOR SPEED™ PAYBACK

4 сезон

9 сезон

Бесстыжие 9 сезон

Все сериалы

все сериалы на PB.wtf

RePack

FAR CRY 5

Anonymous, добрый вечер, мы не успеваем до 1 числа собрать деньги на оплату серверов, помогите нам пожалуйста в это трудное время. В качестве благодарности мы отключим Вам всю рекламу на сайте (укажите свой ник в строку Ваше имя)!

×
  
Magnet ссылка

Трансформация / Rupture (Стивен Шейнберг) [2016 г., ужасы, фантастика, триллер, HDRip, Дубляж "iTunes"] piratbit.org

Трансформация через торрент piratbit.org

Размер: 2.05 GB | Добавлен: 4 года 2 мес. назад | Торрент скачан:511 раз
Скачать  

04-04-2017 18:33 Трансформация Скачать торрент  

Трансформация / Rupture
Год выпуска: 2016
Страна: США, Канада / Ambi Pictures, BondIt, Tango Pictures
Жанр: ужасы, фантастика, триллер
Продолжительность: 01:41:15
Перевод: Дубляж (iTunes)

Режиссер: Стивен Шейнберг

rating

В ролях: Нуми Рапас, Петер Стормаре, Керри Бише, Майкл Чиклис, Лесли Мэнвилл, Пол Попович, Эри Миллен, Джоэль Лабелль, Перси Хайнс Уайт, Серджо Ди Зио

Описание: Рене живет с 12-летним сыном в тихом районе на окраине города. Она страшно боится пауков. Однажды её похищают незнакомцы, и женщина приходит в себя в лаборатории, где узнает, что она – уникальный обладатель генетической аномалии, которая может помочь ей трансформироваться в иную сущность, в монстра

Качество: HDRip
Формат: AVI
Видео кодек: XviD
Аудио кодек: AC3
Видео: MPEG4, XviD, 720x304 (2.35:1), 23.976 fps, 2 499 Kbps (0.476 bit/pixel)
Аудио: AC-3, 48.0 KHz, 6 ch, 384 Kbps, CBR

Общее
Полное имя : F:\ФИЛЬМЫ\Трансформация.2016.D.HDRip.avi
Формат : AVI
Формат/Информация : Audio Video Interleave
Профиль формата : OpenDML
Размер файла : 2,05 Гбайт
Продолжительность : 1 ч. 41 м.
Общий поток : 2896 Кбит/сек
Программа кодирования : VirtualDubMod 1.5.10.3 | www.virtualdub-fr.org || (build 2550/release)
Библиотека кодирования : VirtualDubMod build 2550/release

Видео
Идентификатор : 0
Формат : MPEG-4 Visual
Профиль формата : Advanced Simple@L5
Параметр BVOP формата : 1
Параметр QPel формата : Нет
Параметр GMC формата : Без точки перехода
Параметр матрицы формата : Default (MPEG)
Идентификатор кодека : XVID
Идентификатор кодека/Подсказка : XviD
Продолжительность : 1 ч. 41 м.
Битрейт : 2499 Кбит/сек
Ширина : 720 пикселей
Высота : 304 пикселя
Соотношение сторон : 2,35:1
Частота кадров : 23,976 (24000/1001) кадра/сек
Цветовое пространство : YUV
Субдискретизация насыщенности : 4:2:0
Битовая глубина : 8 бит
Тип развёртки : Прогрессивная
Метод сжатия : С потерями
Бит/(Пиксели*Кадры) : 0.476
Размер потока : 1,77 Гбайт (86%)
Библиотека кодирования : XviD 1.2.1 (UTC 2008-12-04)

Аудио
Идентификатор : 1
Формат : AC-3
Формат/Информация : Audio Coding 3
Параметр Endianness формата : Big
Идентификатор кодека : 2000
Продолжительность : 1 ч. 41 м.
Вид битрейта : Постоянный
Битрейт : 384 Кбит/сек
Каналы : 6 каналов
Расположение каналов : Front: L C R, Side: L R, LFE
Частота : 48,0 КГц
Частота кадров : 31,250 кадров/сек (1536 spf)
Битовая глубина : 16 бит
Метод сжатия : С потерями
Размер потока : 278 Мбайт (13%)
Выравнивание : Разделение по промежуткам
Продолжительность промежутка : 42 мс. (1,00 видеокадр)
Время предзагрузки промежутка : 500 мс.
ServiceKind/String : Complete Main

piratbit.org



Скачать Трансформация через торрент https://pic1.kartinco.top/images/11/9o3d4.jpg Скачать фильм Трансформация через торрент бесплантно в хорошем качестве Описание: Рене живет с 12-летним сыном в тихом районе на окраине города. Она страшно боится пауков. Однажды её похищают незнакомцы, и ... 8.8 10 17
Торрент: Зарегистрирован [2017-04-04 18:33] · скачан: 511 раз
Статус: √ проверено
Размер: 2.05 GB
Как cкачать? Как скачать Трансформация через торрент | UTorrent

% Раздел Тема Автор DL S | L
Фильмы [HD 720p, 1080p] (Хороший звук DUB, MVO) [ 14.07 GB ] Трансформация / Rupture [2016 BDRip 1080p ""] Ворон Скачать
1 | 0
Фильмы 2016 [DVDrip, WEB-DLRip, HDrip] (DUB, MVO) [ 1.42 GB ] Трансформация / Rupture [2016 BDRip] - Twi7ter Скачать
1 | 0
Фильмы 2016 [DVDrip, WEB-DLRip, HDrip] (DUB, MVO) [ 1.42 GB ] Трансформация / Rupture [2016 BDRip] bober100 Скачать
1 | 0

28-11-2019 20:33  

Отключить всю рекламу на сайте

20-04-2017 19:51 Трансформация Скачать торрент  

ХРЕНЬpiratbit.org



22-04-2017 09:38 Трансформация Скачать торрент  

полнейшее ..овноpiratbit.org



22-04-2017 09:46 Трансформация Скачать торрент  

Ляпа полнейшаяpiratbit.org



    Дорогой пользователь! Огромная просьба, поблагодарите релизера, оцените раздачу и оставьте свои комментарий, если Вы скачали Трансформация через торрент бесплатно! Внесите свою лепту в развитие PiratBit!
    Комментировать посты могут только пользователи прошедшие не сложную регистрацию
    Показать сообщения:    

    Трансформация через торрент
    Скачать бесплатно Трансформация
    Трансформация скачать торрент
    Трансформация смотреть онлайн
    Cкачать фильм Трансформация бесплатно
    Трансформация скачать торрент в хорошем качестве
    Трансформация смотреть онлайн бесплатно в хорошем качестве


    Вы не можете начинать темы
    Вы не можете отвечать на сообщения
    Вы не можете редактировать свои сообщения
    Вы не можете удалять свои сообщения
    Вы не можете голосовать в опросах
    Вы не можете прикреплять файлы к сообщениям
    Вы можете скачивать файлы