2 сезон

iTunes

MVO

1

2 сезон

iTunes

iTunes

1 сезон

RePack

30

Новинка

ВАЖНО

ИГРА 18+

pack

RePack

MK11
pack

Легкие деньги

RePack

jed

RePack

fifa19

RePack

RDR2

RePack

NEED FOR SPEED™ PAYBACK

4 сезон

9 сезон

Бесстыжие 9 сезон

Все сериалы

все сериалы на PB.wtf

RePack

FAR CRY 5

Anonymous, добрый вечер, мы не успеваем собрать деньги на оплату серверов за декабрь и январь, помогите нам пожалуйста в это трудное время. В качестве благодарности мы отключим Вам всю рекламу на сайте (укажите свой ник в строку Ваше имя)!

×
  
Magnet ссылка

Нагиев - это моя работа (Ахмад Умурзаков) [2017, Документальный, биография, HDTV 1080i] Не требуется [Русский] от R.G.Resident piratbit.org

Скачать  

09-04-2017 00:08 Нагиев - это моя работа Скачать торрент  

Нагиев - это моя работа


Год выпуска: 2017
Страна: Россия, Красный квадрат, Первый канал
Жанр: Документальный, биография
Продолжительность: 00:49:58
Перевод: Не требуется [Русский]
Режиссер: Ахмад Умурзаков
В ролях: Дмитрий Нагиев

Описание:
4 апреля Дмитрию Нагиеву исполнилось 50 лет. На протяжении 5 лет съёмочная группа по крупинкам собирала документальный 50-тиминутный фильм про ведущего самых рейтинговых программ, актера популярных ситкомов, российского секс-символа. Мальчик для битья и издевок одноклассников. Студент театрального, у которого первое время ровным счетом ничего не получалось. Начинающий актер, чье лицо в 23 года исказил паралич лицевого нерва. Сколько в его жизни было борьбы с обстоятельствами, и конечно, с самим собой, прежде чем он стал тем Нагиевым, которого мы привыкли видеть на экране?
Качество: HDTV 1080i Rip by
Формат: MKV
Видео: AVC, 1920x1080 (16:9), 5884 kbps, 25 fps, 0,114 bpp
Аудио: AC3 / 5.1 / 48 kHz / 384 kbps /

General
Unique ID : 228606886500631126085272800673823620694 (0xABFC15B6CB588735A85D892117B27E56)
Complete name : E:\Nagiev jeto moja rabota.2017.HDTV 1080.by.White Smoke.R.G.Resident.mkv
Format : Matroska
Format version : Version 4 / Version 2
File size : 2.23 GiB
Duration : 49 min
Overall bit rate : 6 396 kb/s
Movie name : Nagiev jeto moja rabota.2017.HDTV 1080.by.White Smoke.R.G.Resident.mkv
Encoded date : UTC 2017-04-08 23:27:25
Writing application : mkvmerge v6.8.0 ('Theme for Great Cities') 64bit built on Mar 2 2014 21:34:26
Writing library : libebml v1.3.0 + libmatroska v1.4.1

Video
ID : 1
Format : AVC
Format/Info : Advanced Video Codec
Format profile : Main@L4.1
Format settings, CABAC : No
Format settings, ReFrames : 1 frame
Format settings, GOP : M=1, N=50
Codec ID : V_MPEG4/ISO/AVC
Duration : 49 min
Bit rate : 5 885 kb/s
Width : 1 920 pixels
Height : 1 080 pixels
Display aspect ratio : 16:9
Frame rate mode : Constant
Frame rate : 25.000 FPS
Color space : YUV
Chroma subsampling : 4:2:0
Bit depth : 8 bits
Scan type : Progressive
Bits/(Pixel*Frame) : 0.114
Stream size : 2.05 GiB (92%)
Default : Yes
Forced : No

Audio
ID : 2
Format : AC-3
Format/Info : Audio Coding 3
Mode extension : CM (complete main)
Format settings, Endianness : Big
Codec ID : A_AC3
Duration : 49 min
Bit rate mode : Constant
Bit rate : 384 kb/s
Channel(s) : 6 channels
Channel positions : Front: L C R, Side: L R, LFE
Sampling rate : 48.0 kHz
Frame rate : 31.250 FPS (1536 spf)
Compression mode : Lossy
Stream size : 137 MiB (6%)
Default : Yes
Forced : No

© Оформление by White Smoke piratbit.org



Скачать
Чтобы иметь возможность скачивать с Торрент Трекера, нужно Зарегистрироваться

Как скачивать  ·  Рейтинг и ограничения

28-11-2019 20:33  

Отключить всю рекламу на сайте

    Дорогой пользователь! Огромная просьба, поблагодарите релизера, оцените раздачу и оставьте свои комментарий, если Вы скачали Нагиев - это моя работа через торрент бесплатно! Внесите свою лепту в развитие PiratBit!
    Комментировать посты могут только пользователи прошедшие не сложную регистрацию
    Показать сообщения:    

    Нагиев - это моя работа через торрент
    Скачать бесплатно Нагиев - это моя работа
    Нагиев - это моя работа скачать торрент
    Нагиев - это моя работа смотреть онлайн
    Cкачать фильм Нагиев - это моя работа бесплатно
    Нагиев - это моя работа скачать торрент в хорошем качестве
    Нагиев - это моя работа смотреть онлайн бесплатно в хорошем качестве


    Вы не можете начинать темы
    Вы не можете отвечать на сообщения
    Вы не можете редактировать свои сообщения
    Вы не можете удалять свои сообщения
    Вы не можете голосовать в опросах
    Вы не можете прикреплять файлы к сообщениям
    Вы не можете скачивать файлы